• Игры для PS4
  • Игры для PS3
  • Игры для XBOX360
  • Игры для PC
  • Игры для PS2
  • Игры для PSP
  • Для телефонов
  • Музыка
  • Книги / Журналы
  • Обои
  • Опрос
    Удобен ли сайт в использовании?
      0
    • Очень удобен, все понятно1,1,false,300,full
    • Удобен1,2,false,300,full
    • Средне1,3,false,300,full
    • Неудобен, трудно ориентироваться1,4,false,300,full
    • Совсем неудобен1,5,false,300,full
    Статистика
    Всего онлайн -
    Гостей -
    Пользователей -
    Короли трекера
    Благодарности () Закрыть
    Последний контракт Халли / Киллер Кали / Khali the Killer

    Страна: США [img]http://st.kp.yandex.net/images/flags/flag-1.gif[/img]
    Производство: Millennium Films, Hollow Creek Pictures, Dark Water Productions, Cardinalwood Content
    Год выпуска: 2017
    Жанр:  драма, криминал
    Продолжительность: 01:29:58

    Режиссер: Джон Мэттьюс / Jon Matthews
    Автор сценария: Джон Мэттьюс / Jon Matthews

    В ролях: Ричард Кебрал, Райан Дорси, Корина Калдерон, Клэйтон Карденас, Кари Дж. Крамер, Челси Дебо, Дина Фриман, Джонни Рей Диас

    Описание: Перед тем как отойти от дел, наемный убийца решается на одну последнюю работу ради денег для своей бабушки, которой требуется особый уход. Но всё идёт не по плану, когда он привязывается к своей будущей жертве, и герою предстоит принять, возможно, самое сложное решение в своей жизни...



    Перевод: Профессиональный (многоголосый, закадровый) | iTunes
    Субтитры: нет

    Качество: BDRip | исходник Blu-Ray (GER) - Khali.the.Killer.2017.NORDiC.REMUX.1080p.BluRay.AVC.DTS-HD.MA.5.1-CDB
    Формат: АVI
    Видео кодек: XviD
    Аудио кодек: АС3
    Видео: 720x304 (2.35:1), 23.976 fps, XviD build 67 ~1 540 kbps avg
    Аудио №1: 48.0 kHz, AC3 Dolby Digital, 3/2 (L,C,R,l,r) + LFE ch, ~384 kbps | RUS
    Аудио №2: 48.0 kHz, AC3 Dolby Digital, 3/2 (L,C,R,l,r) + LFE ch, ~384 kbps | ENG

    Дата премьеры (мир): 2 ноября 2017

    [img]http://s010.radikal.ru/i313/1609/5b/ca3b75e82c69.gif[/img]

    Media Info
    General
    Полное имя                               : Khali.the.Killer.2017.BDRip-ylnian.avi
    Формат                                   : AVI
    Формат/Информация                        : Audio Video Interleave
    Размер файла                             : 1,46 Гбайт
    Продолжительность                        : 1 ч. 29 м.
    Общий поток                              : 2322 Кбит/сек
    Программа кодирования                    : VirtualDubMod 1.5.10.3 | (build 2550/release)
    Библиотека кодирования                   : VirtualDubMod build 2550/release

    Видео
    Идентификатор                            : 0
    Формат                                   : MPEG-4 Visual
    Профиль формата                          : Advanced Simple@L5
    Настройки формата                        : BVOP1
    Параметр BVOP формата                    : 1
    Параметр QPel формата                    : Нет
    Параметр GMC формата                     : Без точки перехода
    Параметр матрицы формата                 : Default (MPEG)
    Идентификатор кодека                     : XVID
    Идентификатор кодека/Подсказка           : XviD
    Продолжительность                        : 1 ч. 29 м.
    Битрейт                                  : 1540 Кбит/сек
    Ширина                                   : 720 пикселей
    Высота                                   : 304 пикселя
    Соотношение сторон                       : 2,35:1
    Частота кадров                           : 23,976 (24000/1001) кадра/сек
    Цветовое пространство                    : YUV
    Субдискретизация насыщенности            : 4:2:0
    Битовая глубина                          : 8 бит
    Тип развёртки                            : Прогрессивная
    Метод сжатия                             : С потерями
    Бит/(Пиксели*Кадры)                      : 0.293
    Размер потока                            : 991 Мбайт (66%)
    Библиотека кодирования                   : XviD 67

    Аудио #1
    Идентификатор                            : 1
    Формат                                   : AC-3
    Формат/Информация                        : Audio Coding 3
    Идентификатор кодека                     : 2000
    Продолжительность                        : 1 ч. 29 м.
    Вид битрейта                             : Постоянный
    Битрейт                                  : 384 Кбит/сек
    Каналы                                   : 6 каналов
    Расположение каналов                     : Front: L C R, Side: L R, LFE
    Частота                                  : 48,0 КГц
    Частота кадров                           : 31,250 кадров/сек (1536 SPF)
    Битовая глубина                          : 16 бит
    Метод сжатия                             : С потерями
    Размер потока                            : 247 Мбайт (17%)
    Выравнивание                             : Разделение по промежуткам
    Продолжительность промежутка             : 42  мс. (1,00 видеокадр)
    Время предзагрузки промежутка            : 500  мс.
    Заголовок                                : RUS - MVO - iTunes

    Аудио #2
    Идентификатор                            : 2
    Формат                                   : AC-3
    Формат/Информация                        : Audio Coding 3
    Идентификатор кодека                     : 2000
    Продолжительность                        : 1 ч. 29 м.
    Вид битрейта                             : Постоянный
    Битрейт                                  : 384 Кбит/сек
    Каналы                                   : 6 каналов
    Расположение каналов                     : Front: L C R, Side: L R, LFE
    Частота                                  : 48,0 КГц
    Частота кадров                           : 31,250 кадров/сек (1536 SPF)
    Битовая глубина                          : 16 бит
    Метод сжатия                             : С потерями
    Размер потока                            : 247 Мбайт (17%)
    Выравнивание                             : Разделение по промежуткам
    Продолжительность промежутка             : 42  мс. (1,00 видеокадр)
    Время предзагрузки промежутка            : 500  мс.
    Заголовок                                : ENGСвернуть


    Скриншоты
    [screen]http://img11.lostpic.net/2018/08/07/4ab14bf61710b5ffb63d0acbdf96f23d.png[/screen][screen]http://img11.lostpic.net/2018/08/07/b08bef38798798493c5204bc4d900be2.png[/screen][screen]http://img11.lostpic.net/2018/08/07/5ae7801fba0ba5f5cbe06e932b0af396.png[/screen]Свернуть
    Похожие раздачи Искать похожие
    Инструкция по скачиванию
     1  Качаем uTorrent версии 2.0 и выше
     2  После установки, жмем выше под постером на ссылку Скачать [MediaGet] или Скачать .torrent
     3  Открываем скачанный файл через соответствующий клиент: MediaGet или uTorrent
     4  Ждем пока подключатся участники
     5  Качаем
    Комментарии о  Последний контракт Халли / Khali the Killer | BDRip 
    Ближайшее в кино
    Вверх