• Игры для PS4
  • Игры для PS3
  • Игры для XBOX360
  • Игры для PC
  • Игры для PS2
  • Игры для PSP
  • Для телефонов
  • Музыка
  • Книги / Журналы
  • Обои
  • Опрос
    Откуда Вы о нас узнали?
      0
    • От знакомых2,1,false,300,full
    • Из социальных сетей2,2,false,300,full
    • Из поисковых систем2,3,false,300,full
    • Другое2,4,false,300,full
    Статистика
    Всего онлайн -
    Гостей -
    Пользователей -
    Короли трекера
    Благодарности () Закрыть
    Последний контракт Халли / Киллер Кали / Khali the Killer

    Страна: США [img]http://st.kp.yandex.net/images/flags/flag-1.gif[/img]
    Производство: Millennium Films, Hollow Creek Pictures, Dark Water Productions, Cardinalwood Content
    Год выпуска: 2017
    Жанр:  драма, криминал
    Продолжительность: 01:29:58

    Режиссер: Джон Мэттьюс / Jon Matthews
    Автор сценария: Джон Мэттьюс / Jon Matthews

    В ролях: Ричард Кебрал, Райан Дорси, Корина Калдерон, Клэйтон Карденас, Кари Дж. Крамер, Челси Дебо, Дина Фриман, Джонни Рей Диас

    Описание: Перед тем как отойти от дел, наемный убийца решается на одну последнюю работу ради денег для своей бабушки, которой требуется особый уход. Но всё идёт не по плану, когда он привязывается к своей будущей жертве, и герою предстоит принять, возможно, самое сложное решение в своей жизни...



    Перевод: Профессиональный (многоголосый, закадровый) | iTunes
    Субтитры: Dan, Dut, Fin, Nor, Swe

    Качество: BDRemux 1080p
    Формат: МКV
    Видео кодек: AVC
    Аудио кодек: АС3 | DTS
    Видео: 1920x1080 (16:9), 23.976 fps, MPEG-4 AVC ~20.0 Мbps avg
    Аудио №1: 48.0 kHz, AC3 Dolby Digital, 3/2 (L,C,R,l,r) + LFE ch, ~384 kbps | RUS / MVO / iTunes
    Аудио №2: 48.0 kHz, Digital Theater Systems Master Audio, 3/2 (L,C,R,l,r) + LFE ch, ~1920 kbps | ENG
    Формат субтитров: UTF-8 Plain Text

    Дата премьеры (мир): 2 ноября 2017

    [img]http://s010.radikal.ru/i313/1609/5b/ca3b75e82c69.gif[/img]

    Media Info
    General
    Уникальный идентификатор                 : 286450454903038489256862399319799768568 (0xD78059D27E14CEA789CDE93818D425F8)
    Полное имя                               : Khali.the.Killer.2017.BDRemux-ylnian.mkv
    Формат                                   : Matroska
    Версия формата                           : Version 4 / Version 2
    Размер файла                             : 14,0 Гбайт
    Продолжительность                        : 1 ч. 29 м.
    Режим общего битрейта                    : Переменный
    Общий поток                              : 22,3 Мбит/сек
    Название фильма                          : Khali.the.Killer.2017.BDRemux-ylnian
    Дата кодирования                         : UTC 2018-08-03 16:32:39
    Программа кодирования                    : mkvmerge v25.0.0 ("Prog Noir") 64-bit
    Библиотека кодирования                   : libebml v1.3.6 + libmatroska v1.4.9

    Видео
    Идентификатор                            : 1
    Формат                                   : AVC
    Формат/Информация                        : Advanced Video Codec
    Профиль формата                          : High@L4.1
    Настройки формата                        : CABAC / 4 Ref Frames
    Параметр CABAC формата                   : Да
    Параметр RefFrames формата               : 4 кадра
    Идентификатор кодека                     : V_MPEG4/ISO/AVC
    Продолжительность                        : 1 ч. 29 м.
    Вид битрейта                             : Переменный
    Битрейт                                  : 20,0 Мбит/сек
    Максимальный битрейт                     : 35,0 Мбит/сек
    Ширина                                   : 1920 пикселей
    Высота                                   : 1080 пикселей
    Соотношение сторон                       : 16:9
    Режим частоты кадров                     : Постоянный
    Частота кадров                           : 23,976 (24000/1001) кадра/сек
    Стандарт вещания                         : NTSC
    Цветовое пространство                    : YUV
    Субдискретизация насыщенности            : 4:2:0
    Битовая глубина                          : 8 бит
    Тип развёртки                            : Прогрессивная
    Бит/(Пиксели*Кадры)                      : 0.402
    Размер потока                            : 12,6 Гбайт (90%)
    Заголовок                                : Khali.the.Killer.2017.NORDiC.REMUX.1080p.BluRay.AVC.DTS-HD.MA.5.1-CDB
    Язык                                     : English
    Default                                  : Да
    Forced                                   : Да
    Цветовой диапазон                        : Limited
    Основные цвета                           : BT.709
    Характеристики трансфера                 : BT.709
    Коэффициенты матрицы                     : BT.709

    Аудио #1
    Идентификатор                            : 2
    Формат                                   : AC-3
    Формат/Информация                        : Audio Coding 3
    Идентификатор кодека                     : A_AC3
    Продолжительность                        : 1 ч. 29 м.
    Вид битрейта                             : Постоянный
    Битрейт                                  : 384 Кбит/сек
    Каналы                                   : 6 каналов
    Расположение каналов                     : Front: L C R, Side: L R, LFE
    Частота                                  : 48,0 КГц
    Частота кадров                           : 31,250 кадров/сек (1536 SPF)
    Битовая глубина                          : 16 бит
    Метод сжатия                             : С потерями
    Размер потока                            : 247 Мбайт (2%)
    Заголовок                                : MVO - iTunes
    Язык                                     : Russian
    Default                                  : Да
    Forced                                   : Да

    Аудио #2
    Идентификатор                            : 3
    Формат                                   : DTS
    Формат/Информация                        : Digital Theater Systems
    Профиль формата                          : MA / Core
    Идентификатор кодека                     : A_DTS
    Продолжительность                        : 1 ч. 29 м.
    Вид битрейта                             : Переменный / Постоянный
    Битрейт                                  : 1920 Кбит/сек / 1509 Кбит/сек
    Каналы                                   : 6 каналов
    Расположение каналов                     : Front: L C R, Side: L R, LFE
    Частота                                  : 48,0 КГц
    Частота кадров                           : 93,750 кадра/сек (512 SPF)
    Битовая глубина                          : 16 бит
    Метод сжатия                             : Без потерь / Lossy
    Размер потока                            : 1,20 Гбайт (9%)
    Заголовок                                : DTS-HD
    Язык                                     : English
    Default                                  : Нет
    Forced                                   : Нет

    Текст #1
    Идентификатор                            : 4
    Формат                                   : UTF-8
    Идентификатор кодека                     : S_TEXT/UTF8
    Идентификатор кодека/Информация          : UTF-8 Plain Text
    Продолжительность                        : 1 ч. 26 м.
    Битрейт                                  : 44 бит/сек
    ElementCount                             : 753
    Размер потока                            : 28,4 Кбайт (0%)
    Язык                                     : Danish
    Default                                  : Нет
    Forced                                   : Нет

    Текст #2
    Идентификатор                            : 5
    Формат                                   : UTF-8
    Идентификатор кодека                     : S_TEXT/UTF8
    Идентификатор кодека/Информация          : UTF-8 Plain Text
    Продолжительность                        : 1 ч. 25 м.
    Битрейт                                  : 44 бит/сек
    ElementCount                             : 762
    Размер потока                            : 27,9 Кбайт (0%)
    Язык                                     : Dutch
    Default                                  : Нет
    Forced                                   : Нет

    Текст #3
    Идентификатор                            : 6
    Формат                                   : UTF-8
    Идентификатор кодека                     : S_TEXT/UTF8
    Идентификатор кодека/Информация          : UTF-8 Plain Text
    Продолжительность                        : 1 ч. 26 м.
    Битрейт                                  : 41 бит/сек
    ElementCount                             : 753
    Размер потока                            : 26,2 Кбайт (0%)
    Язык                                     : Finnish
    Default                                  : Нет
    Forced                                   : Нет

    Текст #4
    Идентификатор                            : 7
    Формат                                   : UTF-8
    Идентификатор кодека                     : S_TEXT/UTF8
    Идентификатор кодека/Информация          : UTF-8 Plain Text
    Продолжительность                        : 1 ч. 26 м.
    Битрейт                                  : 43 бит/сек
    ElementCount                             : 753
    Размер потока                            : 27,7 Кбайт (0%)
    Язык                                     : Norwegian
    Default                                  : Нет
    Forced                                   : Нет

    Текст #5
    Идентификатор                            : 8
    Формат                                   : UTF-8
    Идентификатор кодека                     : S_TEXT/UTF8
    Идентификатор кодека/Информация          : UTF-8 Plain Text
    Продолжительность                        : 1 ч. 26 м.
    Битрейт                                  : 44 бит/сек
    ElementCount                             : 753
    Размер потока                            : 28,3 Кбайт (0%)
    Язык                                     : Swedish
    Default                                  : Нет
    Forced                                   : Нет

    Меню
    00:00:00.000                             : en:Chapter 00
    00:08:18.039                             : en:Chapter 01
    00:18:45.916                             : en:Chapter 02
    00:24:32.137                             : en:Chapter 03
    00:37:55.022                             : en:Chapter 04
    00:45:13.252                             : en:Chapter 05
    00:54:11.998                             : en:Chapter 06
    01:12:19.585                             : en:Chapter 07
    01:17:04.369                             : en:Chapter 08
    01:26:14.502                             : en:Chapter 09Свернуть


    Скриншоты
    [screen]http://img11.lostpic.net/2018/08/07/3d6554cd0f164b083959aa018e819e4d.png[/screen][screen]http://img11.lostpic.net/2018/08/07/3d6554cd0f164b083959aa018e819e4d.png[/screen][screen]http://img11.lostpic.net/2018/08/07/8d2469e508b90ffd429f9181120341d1.png[/screen]Свернуть
    Похожие раздачи Искать похожие
    Инструкция по скачиванию
     1  Качаем uTorrent версии 2.0 и выше
     2  После установки, жмем выше под постером на ссылку Скачать [MediaGet] или Скачать .torrent
     3  Открываем скачанный файл через соответствующий клиент: MediaGet или uTorrent
     4  Ждем пока подключатся участники
     5  Качаем
    Комментарии о  Последний контракт Халли / Khali the Killer | BDRemux 1080p 
    Ближайшее в кино
    Вверх