• Игры для PS4
  • Игры для PS3
  • Игры для XBOX360
  • Игры для PC
  • Игры для PS2
  • Игры для PSP
  • Для телефонов
  • Музыка
  • Книги / Журналы
  • Обои
  • Опрос
    Удобен ли сайт в использовании?
      0
    • Очень удобен, все понятно1,1,false,300,full
    • Удобен1,2,false,300,full
    • Средне1,3,false,300,full
    • Неудобен, трудно ориентироваться1,4,false,300,full
    • Совсем неудобен1,5,false,300,full
    Статистика
    Всего онлайн -
    Гостей -
    Пользователей -
    Короли трекера
    
    Благодарности () Закрыть
    Быстрее загружает сайты Экономит интернет—трафик Меняет оформление страницы ВК Блокирует всю рекламу на сайтах Загружает торренты как µTorrent клиент Объеденяет все твои чаты из соц. сетей в один Проигрывает твою музыку не заходя во ВКонтакте
    Новый интернет-браузер
    Orbitum
    Скачать
    и многое другое... Подробности на сайте производителя
    Год выпуска: 2003
    Страна: США
    Жанр:  Комедия
    Продолжительность: ~ 00:21:45

    Перевод 1: Профессиональный (многоголосый закадровый) FOX
    Перевод 2: Профессиональный (многоголосый закадровый) СТС

    Режиссер: Джил Джангер, Энди Кэйдифф
    В ролях: Джеймс Белуши, Кортни Торн-Смит, Кимберли Уильямс, Ларри Джо Кэмпбелл, Тейлор Эйтелиан, Билли Бруно, Дэн Эйкройд, Кристофер Мойнихэн

    Описание: Джим и Шерил — образцовая американская семья. Они живут в милом доме с двумя очаровательными (но очень шумными) дочками и маленьким сыном. Джим, Шерил и дети счастливы вместе, за исключением тех маленьких стычек, мелочных ссор и разбирательств, которые случаются в каждой семье.



    Качество: WEB-DL 1080p (Amazon)
    Контейнер: MKV
    Видео: AVC, 1920x1080 (16:9), 23.976 fps, 14 Mbps
    Аудио 1: RUS  AC3, 48 KHz, 2 ch, 192 kbps FOX
    Аудио 2: RUS AC3, 48 KHz, 2 ch, 192 kbps СТС
    Аудио 4: ENG AC3, 48 KHz, 6 ch, 384 kbps (Original)
    Субтитры: Английские
    Реклама: Отсутствует

    Содержание
    01. Джим на посылках / The Errand
    02. Мяч «Пэккерс» / The Packer Ball
    03. Бинго! / We Have a Bingo
    04. Познакомимся поближе? / Getting to Know You
    05. Лимонадный киоск / The Lemonade Stand
    06. Буквы и цифры / ABCs and 123s
    07. Дана плюс Джим / Dana Dates Jim
    08. Очень страшное кино / Scary Movie
    09. Воображаемый друг / Imaginary Friend
    10. Пейнтбол / Paintball
    11. Простой жест / The Empty Gesture
    12. Правила ведения боя / Rules of Engagement
    13. Тайный Санта / Secret Santa
    14. Продается дом / House for Sale
    15. Дана плюс священник / Dana Dates the Reverend
    16. Шафер / The Best Man
    17. Шерил поет / Cheryl Sings
    18. Если хочешь быть звездой: Часть 1 / When You Wish to Be a Star: Part 1
    19. Если хочешь быть звездой: Часть 2 / When You Wish to Be a Star: Part 2
    20. Наказание без преступления / No Crime, But Punishment
    21. Малыш / The Baby
    22. Кто здесь главный? / Who"s the Boss?
    23. Фургон / The Truck
    24. Унитаз / The Toilet
    25. На свалке / Trashed
    26. Супружеский банк / The Marriage Bank
    27. Кидают всех / Everyone Gets Dumped
    28. Бассейн / The Swimming Pool
    29. Что в семени тебе моем? / A Vast DifferenceСвернуть


    MediaInfo
    Общее
    Уникальный идентификатор                 : 136144122066754002608805059801443920583 (0x666C6775FC4FBF7D47F327338CC2EAC7)
    Полное имя                               : E:According.to.Jim.S03.1080p.WEB-DL.x264.(FOX,СТС)-ParovozNAccording.to.Jim.S03E03.1080p.WEB-DL.x264.Rus.Eng.mkv
    Формат                                   : Matroska
    Версия формата                           : Version 4 / Version 2
    Размер файла                             : 1,91 Гбайт
    Продолжительность                        : 20 м. 13 с.
    Режим общего битрейта                    : Переменный
    Общий поток                              : 13,5 Мбит/сек
    Название фильма                          : According.to.Jim.S03E03.1080p.WEB-DL.x264-TrollHD-ParovozN
    Дата кодирования                         : UTC 2018-07-25 05:17:11
    Программа кодирования                    : mkvmerge v24.0.0 ("Beyond The Pale") 64-bit
    Библиотека кодирования                   : libebml v1.3.6 + libmatroska v1.4.9

    Видео
    Идентификатор                            : 1
    Формат                                   : AVC
    Формат/Информация                        : Advanced Video Codec
    Профиль формата                          : High@L4
    Настройки формата                        : CABAC / 4 Ref Frames
    Параметр CABAC формата                   : Да
    Параметр RefFrames формата               : 4 кадра
    Идентификатор кодека                     : V_MPEG4/ISO/AVC
    Продолжительность                        : 20 м. 13 с.
    Вид битрейта                             : Переменный
    Битрейт                                  : 12,8 Мбит/сек
    Максимальный битрейт                     : 15,0 Мбит/сек
    Ширина                                   : 1920 пикселей
    Высота                                   : 1080 пикселей
    Соотношение сторон                       : 16:9
    Режим частоты кадров                     : Постоянный
    Частота кадров                           : 23,976 (24000/1001) кадра/сек
    Цветовое пространство                    : YUV
    Субдискретизация насыщенности            : 4:2:0
    Битовая глубина                          : 8 бит
    Тип развёртки                            : Прогрессивная
    Бит/(Пиксели*Кадры)                      : 0.257
    Размер потока                            : 1,80 Гбайт (94%)
    Заголовок                                : According to Jim S03E03
    Библиотека кодирования                   : x264 core 148 r2623 d5b2374
    Настройки программы                      : cabac=1 / ref=4 / deblock=1:-1:-1 / analyse=0x3:0x133 / me=umh / subme=9 / psy=1 / psy_rd=1.00:0.15 / mixed_ref=1 / me_range=24 / chroma_me=1 / trellis=2 / 8x8dct=1 / cqm=0 / deadzone=21,11 / fast_pskip=1 / chroma_qp_offset=-3 / threads=34 / lookahead_threads=5 / sliced_threads=0 / nr=150 / decimate=1 / interlaced=0 / bluray_compat=0 / constrained_intra=0 / bframes=8 / b_pyramid=2 / b_adapt=2 / b_bias=0 / direct=3 / weightb=1 / open_gop=0 / weightp=2 / keyint=120 / keyint_min=61 / scenecut=0 / intra_refresh=0 / rc_lookahead=120 / rc=crf / mbtree=1 / crf=18.0 / qcomp=0.60 / qpmin=0 / qpmax=69 / qpstep=4 / vbv_maxrate=15000 / vbv_bufsize=31250 / crf_max=0.0 / nal_hrd=vbr / filler=0 / ip_ratio=1.40 / aq=3:1.00
    Default                                  : Да
    Forced                                   : Нет
    Цветовой диапазон                        : Limited
    Основные цвета                           : BT.709
    Характеристики трансфера                 : BT.709
    Коэффициенты матрицы                     : BT.709

    Аудио #1
    Идентификатор                            : 2
    Формат                                   : AC-3
    Формат/Информация                        : Audio Coding 3
    Идентификатор кодека                     : A_AC3
    Продолжительность                        : 20 м. 13 с.
    Вид битрейта                             : Постоянный
    Битрейт                                  : 192 Кбит/сек
    Каналы                                   : 2 канала
    Расположение каналов                     : Front: L R
    Частота                                  : 48,0 КГц
    Частота кадров                           : 31,250 кадров/сек (1536 SPF)
    Битовая глубина                          : 16 бит
    Метод сжатия                             : С потерями
    Размер потока                            : 27,8 Мбайт (1%)
    Заголовок                                : MVO (FOX)
    Язык                                     : Russian
    ServiceKind                       : Complete Main
    Default                                  : Да
    Forced                                   : Нет

    Аудио #2
    Идентификатор                            : 3
    Формат                                   : AC-3
    Формат/Информация                        : Audio Coding 3
    Идентификатор кодека                     : A_AC3
    Продолжительность                        : 20 м. 13 с.
    Вид битрейта                             : Постоянный
    Битрейт                                  : 192 Кбит/сек
    Каналы                                   : 2 канала
    Расположение каналов                     : Front: L R
    Частота                                  : 48,0 КГц
    Частота кадров                           : 31,250 кадров/сек (1536 SPF)
    Битовая глубина                          : 16 бит
    Метод сжатия                             : С потерями
    Размер потока                            : 27,8 Мбайт (1%)
    Заголовок                                : MVO (СТС)
    Язык                                     : Russian
    ServiceKind                       : Complete Main
    Default                                  : Нет
    Forced                                   : Нет

    Аудио #3
    Идентификатор                            : 4
    Формат                                   : AC-3
    Формат/Информация                        : Audio Coding 3
    Идентификатор кодека                     : A_AC3
    Продолжительность                        : 20 м. 13 с.
    Вид битрейта                             : Постоянный
    Битрейт                                  : 384 Кбит/сек
    Каналы                                   : 6 каналов
    Расположение каналов                     : Front: L C R, Side: L R, LFE
    Частота                                  : 48,0 КГц
    Частота кадров                           : 31,250 кадров/сек (1536 SPF)
    Битовая глубина                          : 16 бит
    Метод сжатия                             : С потерями
    Размер потока                            : 55,6 Мбайт (3%)
    Язык                                     : English
    ServiceKind                       : Complete Main
    Default                                  : Нет
    Forced                                   : Нет

    Текст
    Идентификатор                            : 5
    Формат                                   : UTF-8
    Идентификатор кодека                     : S_TEXT/UTF8
    Идентификатор кодека/Информация          : UTF-8 Plain Text
    Продолжительность                        : 20 м. 2 с.
    Битрейт                                  : 83 бит/сек
    ElementCount                             : 386
    Размер потока                            : 12,3 Кбайт (0%)
    Заголовок                                : English
    Язык                                     : English
    Default                                  : Да
    Forced                                   : НетСвернуть


    Похожие раздачи Искать похожие
    Инструкция по скачиванию
     1  Качаем uTorrent версии 2.0 и выше
     2  После установки, жмем выше под постером на ссылку Скачать [MediaGet] или Скачать .torrent
     3  Открываем скачанный файл через соответствующий клиент: MediaGet или uTorrent
     4  Ждем пока подключатся участники
     5  Качаем
    Комментарии о  Как сказал Джим / According to Jim [Сезон 03] | WEB-DL 1080p 
    Ближайшее в кино
    Вверх