• Игры для PS4
  • Игры для PS3
  • Игры для XBOX360
  • Игры для PC
  • Игры для PS2
  • Игры для PSP
  • Для телефонов
  • Музыка
  • Книги / Журналы
  • Обои
  • Опрос
    Удобен ли сайт в использовании?
      0
    • Очень удобен, все понятно1,1,false,300,full
    • Удобен1,2,false,300,full
    • Средне1,3,false,300,full
    • Неудобен, трудно ориентироваться1,4,false,300,full
    • Совсем неудобен1,5,false,300,full
    Статистика
    Всего онлайн -
    Гостей -
    Пользователей -
    Короли трекера
    Благодарности () Закрыть
    Информация о фильме
    Название: Байки из склепа: Демон ночи (Демон - рыцарь)
    Оригинальное название: Tales from the Crypt: Demon Knight
    Год выхода: 1995
    Жанр:  Ужасы, фэнтези, триллер, комедия
    Режиссер: Эрнест Р. Дикерсон, Гилберт Адлер
    В ролях: Билли Зейн, Уильям Сэдлер, Джада Пинкетт Смит, Джон Кассир, Бренда Бакки, Си Си Эйч Паундер, Дик Миллер, Томас Хейден Чёрч, Джон Шак, Гэри Фармер

    О фильме :
    Два «человека», живущих уже не первую сотню лет, приезжают в маленький городок. Один из них, повелитель демонов, может понаделать их целую кучу из своей крови. А второй пытается его победить при помощи крови разбойника Варраввы, распятого рядом с Христом. Содержалась эта кровь в седьмом ключе, необходимом Нечистому для окончательного овладения миром. Участниками этой насыщенной кошмарами борьбы оказались несколько обычных граждан, о чем они вскоре очень пожалели…



    Страна: США
    Студия: Universal Pictures
    Продолжительность: 01:32:22
    Перевод: Профессиональный (многоголосый, закадровый) - СТС

    Файл
    Формат: MKV
    Качество: HDRip-AVC
    Видео: MPEG-4 AVC, 768x416, ~ 1053 Кбит/с
    Аудио: [img]http://i93.fastpic.ru/big/2017/0727/c0/4b72f0369a3393219ed5935e91fc15c0.gif[/img] AAC-HE, 2 ch, ~ 76 Кбит/с
    Субтитры: Русские, английские

    MI
    Общее
    Уникальный идентификатор : 213348660464550800111608915332368064120 (0xA0817516BF830C7C858EBE4372725E78)
    Полное имя : D:MOVIESTales from the Crypt Demon Knight.1995.ExKinoRay.mkv
    Формат : Matroska
    Версия формата : Version 4 / Version 2
    Размер файла : 747 Мбайт
    Продолжительность : 1 ч. 32 м.
    Общий поток : 1130 Кбит/сек
    Дата кодирования : UTC 2018-08-07 04:17:41
    Программа кодирования : mkvmerge v15.0.0 ("Duel with the Devil") 64-bit
    Библиотека кодирования : libebml v1.3.5 + libmatroska v1.4.5

    Видео
    Идентификатор : 1
    Формат : AVC
    Формат/Информация : Advanced Video Codec
    Профиль формата : High@L4.1
    Параметр CABAC формата : Да
    Параметр RefFrames формата : 12 кадров
    Идентификатор кодека : V_MPEG4/ISO/AVC
    Продолжительность : 1 ч. 32 м.
    Битрейт : 1053 Кбит/сек
    Ширина : 768 пикселей
    Высота : 416 пикселей
    Соотношение сторон : 1,85:1
    Режим частоты кадров : Постоянный
    Частота кадров : 23,976 (24000/1001) кадра/сек
    Цветовое пространство : YUV
    Субдискретизация насыщенности : 4:2:0
    Битовая глубина : 8 бит
    Тип развёртки : Прогрессивная
    Бит/(Пиксели*Кадры) : 0.137
    Размер потока : 696 Мбайт (93%)
    Библиотека кодирования : x264 core 152 r2851kMod ba24899
    Настройки программы : cabac=1 / ref=12 / deblock=1:-3:-3 / analyse=0x3:0x133 / me=umh / subme=10 / psy=1 / fade_compensate=0.00 / psy_rd=1.00:0.16 / mixed_ref=1 / me_range=32 / chroma_me=1 / trellis=2 / 8x8dct=1 / cqm=0 / deadzone=21,11 / fast_pskip=0 / chroma_qp_offset=-3 / threads=6 / lookahead_threads=1 / sliced_threads=0 / nr=0 / decimate=0 / interlaced=0 / bluray_compat=0 / constrained_intra=0 / bframes=11 / b_pyramid=2 / b_adapt=2 / b_bias=0 / direct=3 / weightb=1 / open_gop=0 / weightp=2 / keyint=240 / keyint_min=23 / scenecut=40 / intra_refresh=0 / rc_lookahead=40 / rc=2pass / mbtree=1 / bitrate=1053 / ratetol=1.0 / qcomp=0.60 / qpmin=0 / qpmax=69 / qpstep=4 / cplxblur=20.0 / qblur=0.5 / ip_ratio=1.40 / aq=3:1.00
    Default : Да
    Forced : Нет

    Аудио
    Идентификатор : 2
    Формат : AAC
    Формат/Информация : Advanced Audio Codec
    Профиль формата : HE-AAC / LC
    Идентификатор кодека : A_AAC
    Продолжительность : 1 ч. 31 м.
    Битрейт : 76,0 Кбит/сек
    Каналы : 2 канала
    Расположение каналов : Front: L R
    Частота : 48,0 КГц / 24,0 КГц
    Частота кадров : 23,438 кадра/сек (1024 SPF)
    Метод сжатия : С потерями
    Задержка видео : 31 мс.
    Размер потока : 49,8 Мбайт (7%)
    Язык : Russian
    Default : Да
    Forced : Нет

    Текст #1
    Идентификатор : 3
    Формат : UTF-8
    Идентификатор кодека : S_TEXT/UTF8
    Идентификатор кодека/Информация : UTF-8 Plain Text
    Продолжительность : 1 ч. 24 м.
    Битрейт : 84 бит/сек
    ElementCount : 644
    Размер потока : 52,1 Кбайт (0%)
    Язык : Russian
    Default : Нет
    Forced : Нет

    Текст #2
    Идентификатор : 4
    Формат : UTF-8
    Идентификатор кодека : S_TEXT/UTF8
    Идентификатор кодека/Информация : UTF-8 Plain Text
    Продолжительность : 1 ч. 29 м.
    Битрейт : 48 бит/сек
    ElementCount : 920
    Размер потока : 31,8 Кбайт (0%)
    Язык : English
    Default : Нет
    Forced : Нет

    Меню
    00:00:00.000 : en:00:00:00.000
    00:04:51.374 : en:00:04:51.374
    00:08:14.826 : en:00:08:14.826
    00:11:24.850 : en:00:11:24.850
    00:15:30.011 : en:00:15:30.011
    00:19:13.861 : en:00:19:13.861
    00:28:28.539 : en:00:28:28.539
    00:37:01.510 : en:00:37:01.510
    00:44:48.893 : en:00:44:48.893
    00:53:28.038 : en:00:53:28.038
    00:58:29.880 : en:00:58:29.880
    01:01:43.990 : en:01:01:43.990
    01:07:57.322 : en:01:07:57.322
    01:15:11.840 : en:01:15:11.840
    01:22:48.921 : en:01:22:48.921
    01:26:44.908 : en:01:26:44.908
    Свернуть


    Скриншоты

    [screen]http://img11.lostpic.net/2018/08/07/44d852733f102b452329a68bfa4a8f3d.png[/screen][screen]http://img11.lostpic.net/2018/08/07/1aef4b210f2a6bbaecbea2a6898da532.png[/screen][screen]http://img11.lostpic.net/2018/08/07/dff57a48a51657b7c41201a28a75f994.png[/screen][screen]http://img11.lostpic.net/2018/08/07/10721429771a002c7b97f8e40bb1fa7e.png[/screen][screen]http://img11.lostpic.net/2018/08/07/0f8624684d15a8cc335d709efc40cf28.png[/screen][screen]http://img11.lostpic.net/2018/08/07/3f72fb69d153ab8d4751d961bd961a42.png[/screen][screen]http://img11.lostpic.net/2018/08/07/ce2b4c713b6e8dbfbbef036cf58db1a9.png[/screen][screen]http://img11.lostpic.net/2018/08/07/f22dd19e84ae4bb88818289d34b14194.png[/screen]
    Свернуть


    [img]http://i101.fastpic.ru/big/2018/0205/db/2bb5d8d6418a0fdc34277325cb111edb.gif[/img][img]http://i92.fastpic.ru/big/2017/0727/ee/d5deb5b73669b4c45974c6b5d6c309ee.gif[/img][img]http://i92.fastpic.ru/big/2017/0727/34/cf9a17c70dfe7fe87e42af3f9f29e734.gif[/img]
    Похожие раздачи Искать похожие
    Инструкция по скачиванию
     1  Качаем uTorrent версии 2.0 и выше
     2  После установки, жмем выше под постером на ссылку Скачать [MediaGet] или Скачать .torrent
     3  Открываем скачанный файл через соответствующий клиент: MediaGet или uTorrent
     4  Ждем пока подключатся участники
     5  Качаем
    Комментарии о  Байки из склепа: Демон ночи / Tales from the Crypt: Demon Knight | HDRip-AVC 
    Ближайшее в кино
    Вверх