• Игры для PS4
  • Игры для PS3
  • Игры для XBOX360
  • Игры для PC
  • Игры для PS2
  • Игры для PSP
  • Для телефонов
  • Музыка
  • Книги / Журналы
  • Обои
  • Опрос
    Удобен ли сайт в использовании?
      0
    • Очень удобен, все понятно1,1,false,300,full
    • Удобен1,2,false,300,full
    • Средне1,3,false,300,full
    • Неудобен, трудно ориентироваться1,4,false,300,full
    • Совсем неудобен1,5,false,300,full
    Статистика
    Всего онлайн -
    Гостей -
    Пользователей -
    Короли трекера
    Благодарности () Закрыть
    Информация о фильме
    Название: Васаби
    Оригинальное название: Wasabi
    Год выхода: 2001
    Жанр: боевик, триллер, драма, комедия, криминал
    Режиссер: Жерар Кравчик
    В ролях: Жан Рено, Риоко Хиросуэ, Мишель Мюллер, Кароль Буке, Йоши Оида, Кристиан Синниже, Александр Брик, Жан-Марк Монтальто

    О фильме:
    Юбер Фиорентини — французский полицейский, исполняя последнюю волю когда-то им любимой японской девушки, вынужден отправиться в далекую Японию, где ему приходится встретиться со старым другом и дочерью, о существовании которой он даже не подозревал. А так же получить наследство в 200 млн. долларов, и познакомиться с японской якудзой, охотящейся за заманчивой суммой…



    Страна: Франция, Япония
    Студия: Europa Corp., Canal+ [fr]
    Продолжительность: 01:33:53
    Перевод: Профессиональный дублированный, многоголосый, авторский одноголосый

    Файл
    Кодек: HEVC x265
    Качество: BDRip-HEVC 1080p
    Видео: 1916x816 (2.35:1), 7420 Кбит/сек, 0.198 бит/(Пиксели*Кадры), 23.976 (24000/1001) кадр/сек, (Main10@L.4.1@High), 10 бит
    Звук:
    Аудио1: Русская, AC3 448 Кбит/сек, 6 канала(ов),16bit 48,0 КГц Дублированный R5 (Союз-Видео)
    Аудио2: Русская, AC3 448 Кбит/сек, 6 канала(ов),16bit 48,0 КГц MVO CP Digital
    Аудио3: Русская, AC3 448 Кбит/сек, 6 канала(ов),16bit 48,0 КГц DVO Петр Гланц и Инна Королева
    Аудио4: Русская, AC3 448 Кбит/сек, 6 канала(ов),16bit 48,0 КГц AVO Володарский
    Аудио5: Русская, AC3 192 Кбит/сек, 2 канала(ов),16bit 48,0 КГц AVO Гранкин
    Аудио6: French, AC3 448 Кбит/сек, 6 канала(ов),16bit 48,0 КГц
    Субтитры: Русские, English
    Навигация по главам: Есть

    Mediainfo
    General
    Unique ID                   : 245228853531799105042391816971257587548 (0xB87D5BF6226E49B08B22E7D559CF275C)
    Complete name               : F:HEVCWasabi (2001) BDRip 1080p [HEVC] 10Bit_Cthulhu.mkv
    Format                      : Matroska
    Format version              : Version 4 / Version 2
    File size                   : 6.46 GiB
    Duration                    : 1 h 33 min
    Overall bit rate            : 9 851 kb/s
    Movie name                  : Wasabi (2001)_rip_by_Cthulhu
    Encoded date                : UTC 2018-08-07 16:21:12
    Writing application         : mkvmerge v18.0.0 ("Apricity") 64-bit
    Writing library             : libebml v1.3.5 + libmatroska v1.4.8
    Cover                       : Yes
    Attachments                 : cover.jpg

    Video
    ID                          : 1
    Format                      : HEVC
    Format/Info                 : High Efficiency Video Coding
    Format profile              : Main 10@L4.1@High
    Codec ID                    : V_MPEGH/ISO/HEVC
    Duration                    : 1 h 33 min
    Bit rate                    : 7 420 kb/s
    Width                  192     : 1 916 pixels
    Height                      : 816 pixels
    Display aspect ratio        : 2.35:1
    Frame rate mode             : Constant
    Frame rate                  : 23.976 (24000/1001) FPS
    Color space                 : YUV
    Chroma subsampling          : 4:2:0
    Bit depth                   : 10 bits
    Bits/(Pixel*Frame)          : 0.198
    Stream size                 : 4.86 GiB (75%)
    Writing library             : x265 2.8+49-5d34bbf671f7:[Windows][GCC 8.1.1][64 bit] 10bit
    Encoding settings           : cpuid=1049583 / frame-threads=4 / numa-pools=4 / wpp / no-pmode / no-pme / no-psnr / no-ssim / log-level=2 / input-csp=1 / input-res=1916x816 / interlace=0 / total-frames=134995 / level-idc=41 / high-tier=1 / uhd-bd=0 / ref=5 / no-allow-non-conformance / no-repeat-headers / annexb / no-aud / no-hrd / info / hash=0 / no-temporal-layers / open-gop / min-keyint=23 / keyint=240 / gop-lookahead=0 / bframes=8 / b-adapt=2 / b-pyramid / bframe-bias=0 / rc-lookahead=40 / lookahead-slices=4 / scenecut=40 / radl=0 / no-intra-refresh / ctu=64 / min-cu-size=8 / rect / amp / max-tu-size=32 / tu-inter-depth=3 / tu-intra-depth=3 / limit-tu=4 / rdoq-level=2 / dynamic-rd=0.00 / no-ssim-rd / signhide / no-tskip / nr-intra=0 / nr-inter=0 / no-constrained-intra / no-strong-intra-smoothing / max-merge=3 / limit-refs=2 / limit-modes / me=3 / subme=7 / merange=57 / temporal-mvp / weightp / weightb / no-analyze-src-pics / deblock=-3:-3 / no-sao / no-sao-non-deblock / rd=4 / no-early-skip / rskip / no-fast-intra / no-tskip-fast / no-cu-lossless / no-b-intra / no-splitrd-skip / rdpenalty=0 / psy-rd=2.00 / psy-rdoq=1.00 / no-rd-refine / no-lossless / cbqpoffs=0 / crqpoffs=0 / rc=crf / crf=18.0 / qcomp=0.60 / qpstep=4 / stats-write=0 / stats-read=0 / vbv-maxrate=50000 / vbv-bufsize=50000 / vbv-init=0.9 / crf-max=0.0 / crf-min=0.0 / ipratio=1.40 / pbratio=1.30 / aq-mode=1 / aq-strength=1.00 / cutree / zone-count=0 / no-strict-cbr / qg-size=32 / no-rc-grain / qpmax=69 / qpmin=0 / no-const-vbv / sar=1 / overscan=0 / videoformat=5 / range=0 / colorprim=1 / transfer=1 / colormatrix=1 / chromaloc=0 / display-window=0 / max-cll=0,0 / min-luma=0 / max-luma=1023 / log2-max-poc-lsb=8 / vui-timing-info / vui-hrd-info / slices=1 / no-opt-qp-pps / no-opt-ref-list-length-pps / no-multi-pass-opt-rps / scenecut-bias=0.05 / no-opt-cu-delta-qp / no-aq-motion / no-hdr / no-hdr-opt / no-dhdr10-opt / no-idr-recovery-sei / analysis-reuse-level=5 / scale-factor=0 / refine-intra=0 / refine-inter=0 / refine-mv=0 / no-limit-sao / ctu-info=0 / no-lowpass-dct / refine-mv-type=0 / copy-pic=1 / max-ausize-factor=1.0 / no-dynamic-refine / no-single-sei
    Language                    : French
    Default                     : Yes
    Forced                      : No
    Color range                 : Limited
    Color primaries             : BT.709
    Transfer characteristics    : BT.709
    Matrix coefficients         : BT.709

    Audio #1
    ID                          : 2
    Format                      : AC-3
    Format/Info                 : Audio Coding 3
    Codec ID                    : A_AC3
    Duration                    : 1 h 33 min
    Bit rate mode               : Constant
    Bit rate                    : 448 kb/s
    Channel(s)                  : 6 channels
    Channel positions           : Front: L C R, Side: L R, LFE
    Sampling rate               : 48.0 kHz
    Frame rate                  : 31.250 FPS (1536 SPF)
    Bit depth                   : 16 bits
    Compression mode            : Lossy
    Stream size                 : 301 MiB (5%)
    Title                       : DUB R5 Союз-Видео
    Language                    : Russian
    Service kind                : Complete Main
    Default                     : Yes
    Forced                      : No

    Audio #2
    ID                          : 3
    Format                      : AC-3
    Format/Info                 : Audio Coding 3
    Codec ID                    : A_AC3
    Duration                    : 1 h 33 min
    Bit rate mode               : Constant
    Bit rate                    : 448 kb/s
    Channel(s)                  : 6 channels
    Channel positions           : Front: L C R, Side: L R, LFE
    Sampling rate               : 48.0 kHz
    Frame rate                  : 31.250 FPS (1536 SPF)
    Bit depth                   : 16 bits
    Compression mode            : Lossy
    Stream size                 : 301 MiB (5%)
    Title                       : MVO CP Digital
    Language                    : Russian
    Service kind                : Complete Main
    Default                     : No
    Forced                      : No

    Audio #3
    ID                          : 4
    Format                      : AC-3
    Format/Info                 : Audio Coding 3
    Codec ID                    : A_AC3
    Duration                    : 1 h 33 min
    Bit rate mode               : Constant
    Bit rate                    : 448 kb/s
    Channel(s)                  : 6 channels
    Channel positions           : Front: L C R, Side: L R, LFE
    Sampling rate               : 48.0 kHz
    Frame rate                  : 31.250 FPS (1536 SPF)
    Bit depth                   : 16 bits
    Compression mode            : Lossy
    Stream size                 : 301 MiB (5%)
    Title                       : DVO Петр Гланц и Инна Королева
    Language                    : Russian
    Service kind                : Complete Main
    Default                     : No
    Forced                      : No

    Audio #4
    ID                          : 5
    Format                      : AC-3
    Format/Info                 : Audio Coding 3
    Codec ID                    : A_AC3
    Duration                    : 1 h 33 min
    Bit rate mode               : Constant
    Bit rate                    : 448 kb/s
    Channel(s)                  : 6 channels
    Channel positions           : Front: L C R, Side: L R, LFE
    Sampling rate               : 48.0 kHz
    Frame rate                  : 31.250 FPS (1536 SPF)
    Bit depth                   : 16 bits
    Compression mode            : Lossy
    Stream size                 : 301 MiB (5%)
    Title                       : AVO Володарский
    Language                    : Russian
    Service kind                : Complete Main
    Default                     : No
    Forced                      : No

    Audio #5
    ID                          : 6
    Format                      : AC-3
    Format/Info                 : Audio Coding 3
    Codec ID                    : A_AC3
    Duration                    : 1 h 33 min
    Bit rate mode               : Constant
    Bit rate                    : 192 kb/s
    Channel(s)                  : 2 channels
    Channel positions           : Front: L R
    Sampling rate               : 48.0 kHz
    Frame rate                  : 31.250 FPS (1536 SPF)
    Bit depth                   : 16 bits
    Compression mode            : Lossy
    Stream size                 : 129 MiB (2%)
    Title                       : AVO Евгений Гранкин
    Language                    : Russian
    Service kind                : Complete Main
    Default                     : No
    Forced                      : No

    Audio #6
    ID                          : 7
    Format                      : AC-3
    Format/Info                 : Audio Coding 3
    Codec ID                    : A_AC3
    Duration                    : 1 h 33 min
    Bit rate mode               : Constant
    Bit rate                    : 448 kb/s
    Channel(s)                  : 6 channels
    Channel positions           : Front: L C R, Side: L R, LFE
    Sampling rate               : 48.0 kHz
    Frame rate                  : 31.250 FPS (1536 SPF)
    Bit depth                   : 16 bits
    Compression mode            : Lossy
    Stream size                 : 301 MiB (5%)
    Language                    : French
    Service kind                : Complete Main
    Default                     : No
    Forced                      : No

    Text #1
    ID                          : 8
    Format                      : UTF-8
    Codec ID                    : S_TEXT/UTF8
    Codec ID/Info               : UTF-8 Plain Text
    Duration                    : 1 h 27 min
    Bit rate                    : 91 b/s
    Count of elements           : 908
    Stream size                 : 59.1 KiB (0%)
    Language                    : Russian
    Default                     : Yes
    Forced                      : No

    Text #2
    ID                          : 9
    Format                      : UTF-8
    Codec ID                    : S_TEXT/UTF8
    Codec ID/Info               : UTF-8 Plain Text
    Duration                    : 1 h 26 min
    Bit rate                    : 51 b/s
    Count of elements           : 815
    Stream size                 : 32.5 KiB (0%)
    Language                    : English
    Default                     : No
    Forced                      : No

    Menu
    00:00:00.000                : :Start
    00:02:26.479                : :The Chief"s Son
    00:06:04.572                : :Tranny Interview
    00:10:07.940                : :Banque De L"etoile Robbery
    00:12:36.797                : :Two Month Suspension
    00:16:24.400                : :Dinner with Sofia
    00:18:45.207                : :My Name Is Hishibashi
    00:22:23.133                : :Welcome to Japan
    00:24:41.229                : :Momo
    00:29:24.596                : :Sole Legatee
    00:32:14.933                : :Yumi
    00:37:53.729                : :The Crematorium
    00:42:59.952                : :Miko"s File
    00:49:44.314                : :Yumi"s Inheritance
    00:55:24.070                : :Red Alert
    01:00:56.903                : :Goon"s With Shades
    01:07:25.958                : :Arms & Fashion Show
    01:14:01.937                : :The Nightclub
    01:17:05.454                : :Yakuza Shootout
    01:19:13.206                : :Names & Numbers
    01:25:31.000                : :Like Tigers & Wolves
    01:28:50.867                : :Takanawa Aka the Zebra

    Свернуть


    Скриншоты
    [screen]http://img11.lostpic.net/2018/08/07/20a3187b8c8cd0fb91e0840012b91979.png[/screen][screen]http://img11.lostpic.net/2018/08/07/1b3a5406c31f88b1d5026bcbf98b30c8.png[/screen][screen]http://img11.lostpic.net/2018/08/07/0cc99ecdacf10822b9d71185528e23af.png[/screen][screen]http://img11.lostpic.net/2018/08/07/dd0f363c26dc7f4b1878fb6e33c6e955.png[/screen][screen]http://img11.lostpic.net/2018/08/07/cf0f86aff644dce5b8c6f9243f54910e.png[/screen][screen]http://img11.lostpic.net/2018/08/07/9dde3ef0b174728cf348b9fb99a977d3.png[/screen][screen]http://img11.lostpic.net/2018/08/07/f70bbbe152f7e422b941fa0351617067.png[/screen][screen]http://img11.lostpic.net/2018/08/07/e3ecee04b9f2f2aa137522740822d4ba.png[/screen]Свернуть


    [img]http://img12.lostpic.net/2018/06/13/f93dd06ce8a9e50557abf5deee63edc8.jpg[/img]
    Похожие раздачи Искать похожие
    Инструкция по скачиванию
     1  Качаем uTorrent версии 2.0 и выше
     2  После установки, жмем выше под постером на ссылку Скачать [MediaGet] или Скачать .torrent
     3  Открываем скачанный файл через соответствующий клиент: MediaGet или uTorrent
     4  Ждем пока подключатся участники
     5  Качаем
    Комментарии о  Васаби / Wasabi | BDRip-HEVC 1080p 
    Ближайшее в кино
    Вверх