• Игры для PS4
  • Игры для PS3
  • Игры для XBOX360
  • Игры для PC
  • Игры для PS2
  • Игры для PSP
  • Для телефонов
  • Музыка
  • Книги / Журналы
  • Обои
  • Опрос
    Удобен ли сайт в использовании?
      0
    • Очень удобен, все понятно1,1,false,300,full
    • Удобен1,2,false,300,full
    • Средне1,3,false,300,full
    • Неудобен, трудно ориентироваться1,4,false,300,full
    • Совсем неудобен1,5,false,300,full
    Статистика
    Всего онлайн -
    Гостей -
    Пользователей -
    Короли трекера
    Благодарности () Закрыть
    Информация о фильме
    Название: Пристрели их
    Оригинальное название: Shoot "Em Up
    Год выхода: 2007
    Жанр:  Боевик, триллер, комедия, криминал
    Режиссер: Майкл Дэвис
    В ролях: Клайв Оуэн, Пол Джаматти, Моника Беллуччи, Стивен МакХэтти, Грег Брайк, Дэниэл Пилон, Сидни Менде-Гибсон, Лукас Менде-Гибсон, Кейлин Йеллоулис, Рамона Прингл, Джулиан Ричингс, Тони Манч, Скотт МакКорд, Уайли М. Пикетт, Стивен Харт, Дэвид Ури, Майк Рэйд, Энди МакКензи, Лаура ДеКартере, Райан Финн

    О фильме:
    Изгой, живущий воспоминаниями о собственном трагическом прошлом, спасает от верной смерти грудного младенца, оказавшись впутанным в правительственный заговор. Вместе с проституткой, ублажающей фантазии клиентов о грудном вскармливании и берущей на себя заботу о малыше, герой отсчитывает последние деньки двух коррумпированных чиновников.



    Страна: США
    Студия: Angry Films, New Line Cinema
    Продолжительность: 01:26:43
    Перевод: Профессиональный дублированный + Профессиональный многоголосый закадровый + Любительский двухголосый закадровый + Авторский одноголосый закадровый
    Субтитры: Русские, украинские, английские,

    Файл
    Тип релиза: WEB-DL 1080p | Open Matte | Amazon
    Контейнер: MKV
    Видео: MPEG4 Video (H264), 1920x1080, 23.976fps, ~13179 Kbps
    Аудио 1: Russian: 48 kHz, AC3, 3/2 (L,C,R,l,r) + LFE ch, ~448.00 kbps avg - Dub
    Аудио 2: Russian: 48 kHz, DTS, 3/2 (L,C,R,l,r) + LFE ch, ~755.00 kbps avg - Кравец
    Аудио 3: Russian: 48 kHz, AC3, 3/2 (L,C,R,l,r) + LFE ch, ~448.00 kbps avg - MVO
    Аудио 4: Russian: 48 kHz, AC3, 3/2 (L,C,R,l,r) + LFE ch, ~448.00 kbps avg - DVO "Сладкая парочка"
    Аудио 5: Russian: 48 kHz, DTS, 3/2 (L,C,R,l,r) + LFE ch, ~1509.00 kbps avg - Гаврилов
    Аудио 6: Russian: 48 kHz, AC3, 3/2 (L,C,R,l,r) + LFE ch, ~448.00 kbps avg - Королёв
    Аудио 7: Russian: 48 kHz, DTS, 3/2 (L,C,R,l,r) + LFE ch, ~1509.00 kbps avg - Киреев
    Аудио 8: Russian: 48 kHz, AC3, 3/2 (L,C,R,l,r) + LFE ch, ~448.00 kbps avg - Строев
    Аудио 9: Russian: 48 kHz, AC3, 3/2 (L,C,R,l,r) + LFE ch, ~448.00 kbps avg - Штамп
    Аудио 10: Ukrainian: 48 kHz, AC3, 1.0 ~96 kbps - ICTV
    Аудио 11: English: 48 kHz, DTS, 3/2 (L,C,R,l,r) + LFE ch, ~1509.00 kbps avg - Blu-ray
    Аудио 12: English: 48 kHz, E-AC3, 3/2 (L,C,R,l,r) + LFE ch, ~640.00 kbps avg - Amazon
    Формат субтитров: softsub (SRT)

    Blu-ray vs Open Matte

    M/I
    General
    Unique ID : 247167501044666858233568183768166352345 (0xB9F2BAA9D850A3B8A61EEEE1ECF6C5D9)
    Complete name : D:HDShoot.Em.Up.2006.Open.Matte.WEB-DL.AMZN.1080p.9xRus.Ukr.2xEng.Subs.mkv
    Format : Matroska
    Format version : Version 4 / Version 2
    File size : 13.3 GiB
    Duration : 1 h 26 min
    Overall bit rate mode : Variable
    Overall bit rate : 21.9 Mb/s
    Encoded date : UTC 2017-08-29 18:05:34
    Writing application : mkvmerge v7.9.0 ("Birds") 64bit
    Writing library : libebml v1.3.1 + libmatroska v1.4.2

    Video
    ID : 1
    Format : AVC
    Format/Info : Advanced Video Codec
    Format profile : High@L4
    Format settings, CABAC : Yes
    Format settings, RefFrames : 4 frames
    Codec ID : V_MPEG4/ISO/AVC
    Duration : 1 h 26 min
    Bit rate mode : Variable
    Bit rate : 13.2 Mb/s
    Maximum bit rate : 15.0 Mb/s
    Width : 1 920 pixels
    Height : 1 080 pixels
    Display aspect ratio : 16:9
    Frame rate mode : Constant
    Frame rate : 23.976 (24000/1001) FPS
    Color space : YUV
    Chroma subsampling : 4:2:0
    Bit depth : 8 bits
    Scan type : Progressive
    Bits/(Pixel*Frame) : 0.265
    Stream size : 7.98 GiB (60%)
    Default : Yes
    Forced : Yes
    Color range : Limited
    Color primaries : BT.709
    Transfer characteristics : BT.709
    Matrix coefficients : BT.709

    Audio #1
    ID : 2
    Format : AC-3
    Format/Info : Audio Coding 3
    Format settings, Endianness : Big
    Codec ID : A_AC3
    Duration : 1 h 26 min
    Bit rate mode : Constant
    Bit rate : 448 kb/s
    Channel(s) : 6 channels
    Channel positions : Front: L C R, Side: L R, LFE
    Sampling rate : 48.0 kHz
    Frame rate : 31.250 FPS (1536 SPF)
    Bit depth : 16 bits
    Compression mode : Lossy
    Stream size : 278 MiB (2%)
    Title : Дубляж
    Language : Russian
    Service kind : Complete Main
    Default : No
    Forced : No

    Audio #2
    ID : 3
    Format : DTS
    Format/Info : Digital Theater Systems
    Mode : 16
    Format settings, Endianness : Big
    Codec ID : A_DTS
    Duration : 1 h 26 min
    Bit rate mode : Constant
    Bit rate : 755 kb/s
    Channel(s) : 6 channels
    Channel positions : Front: L C R, Side: L R, LFE
    Sampling rate : 48.0 kHz
    Frame rate : 93.750 FPS (512 SPF)
    Bit depth : 24 bits
    Compression mode : Lossy
    Stream size : 468 MiB (3%)
    Title : Кравец
    Language : Russian
    Default : No
    Forced : No

    Audio #3
    ID : 4
    Format : AC-3
    Format/Info : Audio Coding 3
    Format settings, Endianness : Big
    Codec ID : A_AC3
    Duration : 1 h 26 min
    Bit rate mode : Constant
    Bit rate : 448 kb/s
    Channel(s) : 6 channels
    Channel positions : Front: L C R, Side: L R, LFE
    Sampling rate : 48.0 kHz
    Frame rate : 31.250 FPS (1536 SPF)
    Bit depth : 16 bits
    Compression mode : Lossy
    Stream size : 278 MiB (2%)
    Title : Многоголосый
    Language : Russian
    Service kind : Complete Main
    Default : No
    Forced : No

    Audio #4
    ID : 5
    Format : AC-3
    Format/Info : Audio Coding 3
    Format settings, Endianness : Big
    Codec ID : A_AC3
    Duration : 1 h 26 min
    Bit rate mode : Constant
    Bit rate : 448 kb/s
    Channel(s) : 6 channels
    Channel positions : Front: L C R, Side: L R, LFE
    Sampling rate : 48.0 kHz
    Frame rate : 31.250 FPS (1536 SPF)
    Bit depth : 16 bits
    Compression mode : Lossy
    Stream size : 278 MiB (2%)
    Title : Двухголосый
    Language : Russian
    Service kind : Complete Main
    Default : No
    Forced : No

    Audio #5
    ID : 6
    Format : DTS
    Format/Info : Digital Theater Systems
    Mode : 16
    Format settings, Endianness : Big
    Codec ID : A_DTS
    Duration : 1 h 26 min
    Bit rate mode : Constant
    Bit rate : 1 509 kb/s
    Channel(s) : 6 channels
    Channel positions : Front: L C R, Side: L R, LFE
    Sampling rate : 48.0 kHz
    Frame rate : 93.750 FPS (512 SPF)
    Bit depth : 24 bits
    Compression mode : Lossy
    Stream size : 936 MiB (7%)
    Title : Гаврилов
    Language : Russian
    Default : No
    Forced : No

    Audio #6
    ID : 7
    Format : AC-3
    Format/Info : Audio Coding 3
    Format settings, Endianness : Big
    Codec ID : A_AC3
    Duration : 1 h 26 min
    Bit rate mode : Constant
    Bit rate : 448 kb/s
    Channel(s) : 6 channels
    Channel positions : Front: L C R, Side: L R, LFE
    Sampling rate : 48.0 kHz
    Frame rate : 31.250 FPS (1536 SPF)
    Bit depth : 16 bits
    Compression mode : Lossy
    Stream size : 278 MiB (2%)
    Title : Королёв
    Language : Russian
    Service kind : Complete Main
    Default : No
    Forced : No

    Audio #7
    ID : 8
    Format : DTS
    Format/Info : Digital Theater Systems
    Mode : 16
    Format settings, Endianness : Big
    Codec ID : A_DTS
    Duration : 1 h 26 min
    Bit rate mode : Constant
    Bit rate : 1 509 kb/s
    Channel(s) : 6 channels
    Channel positions : Front: L C R, Side: L R, LFE
    Sampling rate : 48.0 kHz
    Frame rate : 93.750 FPS (512 SPF)
    Bit depth : 24 bits
    Compression mode : Lossy
    Stream size : 936 MiB (7%)
    Title : Киреев по переводу Ландарь
    Language : Russian
    Default : No
    Forced : No

    Audio #8
    ID : 9
    Format : AC-3
    Format/Info : Audio Coding 3
    Format settings, Endianness : Big
    Codec ID : A_AC3
    Duration : 1 h 26 min
    Bit rate mode : Constant
    Bit rate : 448 kb/s
    Channel(s) : 6 channels
    Channel positions : Front: L C R, Side: L R, LFE
    Sampling rate : 48.0 kHz
    Frame rate : 31.250 FPS (1536 SPF)
    Bit depth : 16 bits
    Compression mode : Lossy
    Stream size : 278 MiB (2%)
    Title : Строев aka de}{ter
    Language : Russian
    Service kind : Complete Main
    Default : No
    Forced : No

    Audio #9
    ID : 10
    Format : AC-3
    Format/Info : Audio Coding 3
    Format settings, Endianness : Big
    Codec ID : A_AC3
    Duration : 1 h 26 min
    Bit rate mode : Constant
    Bit rate : 448 kb/s
    Channel(s) : 6 channels
    Channel positions : Front: L C R, Side: L R, LFE
    Sampling rate : 48.0 kHz
    Frame rate : 31.250 FPS (1536 SPF)
    Bit depth : 16 bits
    Compression mode : Lossy
    Stream size : 278 MiB (2%)
    Title : Штамп aka sf@irat
    Language : Russian
    Service kind : Complete Main
    Default : No
    Forced : No

    Audio #10
    ID : 11
    Format : AC-3
    Format/Info : Audio Coding 3
    Format settings, Endianness : Big
    Codec ID : A_AC3
    Duration : 1 h 26 min
    Bit rate mode : Constant
    Bit rate : 96.0 kb/s
    Channel(s) : 1 channel
    Channel positions : Front: C
    Sampling rate : 48.0 kHz
    Frame rate : 31.250 FPS (1536 SPF)
    Bit depth : 16 bits
    Compression mode : Lossy
    Stream size : 59.5 MiB (0%)
    Title : Багатоголосий ТТП (ICTV)
    Language : Ukrainian
    Service kind : Complete Main
    Default : No
    Forced : No

    Audio #11
    ID : 12
    Format : DTS
    Format/Info : Digital Theater Systems
    Mode : 16
    Format settings, Endianness : Big
    Codec ID : A_DTS
    Duration : 1 h 26 min
    Bit rate mode : Constant
    Bit rate : 1 509 kb/s
    Channel(s) : 6 channels
    Channel positions : Front: L C R, Side: L R, LFE
    Sampling rate : 48.0 kHz
    Frame rate : 93.750 FPS (512 SPF)
    Bit depth : 24 bits
    Compression mode : Lossy
    Stream size : 936 MiB (7%)
    Title : Blu-ray
    Language : English
    Default : No
    Forced : No

    Audio #12
    ID : 13
    Format : E-AC-3
    Format/Info : Enhanced Audio Coding 3
    Format settings, Endianness : Big
    Codec ID : A_EAC3
    Duration : 1 h 26 min
    Bit rate mode : Constant
    Bit rate : 640 kb/s
    Channel(s) : 6 channels
    Channel positions : Front: L C R, Side: L R, LFE
    Sampling rate : 48.0 kHz
    Frame rate : 187.500 FPS (256 SPF)
    Compression mode : Lossy
    Stream size : 397 MiB (3%)
    Title : Amazon
    Language : English
    Service kind : Complete Main
    Default : No
    Forced : No

    Text #1
    ID : 14
    Format : UTF-8
    Codec ID : S_TEXT/UTF8
    Codec ID/Info : UTF-8 Plain Text
    Duration : 1 h 18 min
    Bit rate : 84 b/s
    Count of elements : 899
    Stream size : 48.5 KiB (0%)
    Title : R5
    Language : Russian
    Default : No
    Forced : No

    Text #2
    ID : 15
    Format : UTF-8
    Codec ID : S_TEXT/UTF8
    Codec ID/Info : UTF-8 Plain Text
    Duration : 1 h 18 min
    Bit rate : 87 b/s
    Count of elements : 829
    Stream size : 50.3 KiB (0%)
    Title : Voronine
    Language : Russian
    Default : No
    Forced : No

    Text #3
    ID : 16
    Format : UTF-8
    Codec ID : S_TEXT/UTF8
    Codec ID/Info : UTF-8 Plain Text
    Duration : 1 h 18 min
    Bit rate : 86 b/s
    Count of elements : 877
    Stream size : 49.2 KiB (0%)
    Title : Строев aka de}{ter
    Language : Russian
    Default : No
    Forced : No

    Text #4
    ID : 17
    Format : UTF-8
    Codec ID : S_TEXT/UTF8
    Codec ID/Info : UTF-8 Plain Text
    Duration : 1 h 18 min
    Bit rate : 90 b/s
    Count of elements : 869
    Stream size : 51.6 KiB (0%)
    Title : Anatar
    Language : Russian
    Default : No
    Forced : No

    Text #5
    ID : 18
    Format : UTF-8
    Codec ID : S_TEXT/UTF8
    Codec ID/Info : UTF-8 Plain Text
    Duration : 1 h 18 min
    Bit rate : 81 b/s
    Count of elements : 783
    Stream size : 46.9 KiB (0%)
    Title : sunny-sko
    Language : Russian
    Default : No
    Forced : No

    Text #6
    ID : 19
    Format : UTF-8
    Codec ID : S_TEXT/UTF8
    Codec ID/Info : UTF-8 Plain Text
    Duration : 1 h 20 min
    Bit rate : 93 b/s
    Count of elements : 1006
    Stream size : 55.2 KiB (0%)
    Title : Богдан Усенко
    Language : Russian
    Default : No
    Forced : No

    Text #7
    ID : 20
    Format : UTF-8
    Codec ID : S_TEXT/UTF8
    Codec ID/Info : UTF-8 Plain Text
    Duration : 1 h 25 min
    Bit rate : 74 b/s
    Count of elements : 895
    Stream size : 46.6 KiB (0%)
    Title : R5
    Language : Ukrainian
    Default : No
    Forced : No

    Text #8
    ID : 21
    Format : UTF-8
    Codec ID : S_TEXT/UTF8
    Codec ID/Info : UTF-8 Plain Text
    Duration : 1 h 18 min
    Bit rate : 49 b/s
    Count of elements : 880
    Stream size : 28.1 KiB (0%)
    Title : Blu-ray
    Language : English
    Default : No
    Forced : No

    Text #9
    ID : 22
    Format : UTF-8
    Codec ID : S_TEXT/UTF8
    Codec ID/Info : UTF-8 Plain Text
    Duration : 1 h 21 min
    Bit rate : 63 b/s
    Count of elements : 1418
    Stream size : 37.7 KiB (0%)
    Title : Amazon
    Language : English
    Default : No
    Forced : NoСвернуть


    Скриншоты
    [screen]http://i95.fastpic.ru/big/2017/0829/b4/8145817e56dbb052a11703a7019f17b4.png[/screen][screen]http://i95.fastpic.ru/big/2017/0829/6b/c89d5654a2db460d02405a211114db6b.png[/screen][screen]http://i95.fastpic.ru/big/2017/0829/b8/d28e86734b1f70c41ba3f1d008830eb8.png[/screen][screen]http://i95.fastpic.ru/big/2017/0829/04/aec30c8c5dcbd2aca15727060a41a004.png[/screen]Свернуть
    Похожие раздачи Искать похожие
    Инструкция по скачиванию
     1  Качаем uTorrent версии 2.0 и выше
     2  После установки, жмем выше под постером на ссылку Скачать [MediaGet] или Скачать .torrent
     3  Открываем скачанный файл через соответствующий клиент: MediaGet или uTorrent
     4  Ждем пока подключатся участники
     5  Качаем
    Комментарии о  Пристрели их / Shoot 'Em Up | WEB-DL 1080p 
    Ближайшее в кино
    Вверх