• Игры для PS4
  • Игры для PS3
  • Игры для XBOX360
  • Игры для PC
  • Игры для PS2
  • Игры для PSP
  • Для телефонов
  • Музыка
  • Книги / Журналы
  • Обои
  • Опрос
    Удобен ли сайт в использовании?
      0
    • Очень удобен, все понятно1,1,false,300,full
    • Удобен1,2,false,300,full
    • Средне1,3,false,300,full
    • Неудобен, трудно ориентироваться1,4,false,300,full
    • Совсем неудобен1,5,false,300,full
    Статистика
    Всего онлайн -
    Гостей -
    Пользователей -
    Короли трекера
    Благодарности () Закрыть
    Мстители: Эра Альтрона
    The Avengers: Age of Ultron
    «A new age begins»

    Информация о фильме
    Название: Мстители: Эра Альтрона
    Оригинальное название: Avengers: Age of Ultron
    Год выпуска: 2015
    Жанр:  Фантастика, боевик, триллер, приключения
    Выпущено: США, Marvel Studios Inc.
    Режиссер: Джосс Уидон
    В ролях: Роберт Дауни мл., Крис Хемсворт, Крис Эванс, Скарлетт Йоханссон, Марк Руффало, Джереми Реннер, Аарон Тейлор-Джонсон, Элизабет Олсен, Джеймс Спэйдер, Сэмюэл Л. Джексон, Коби Смолдерс, Пол Беттани, Линда Карделлини, Хейли Этвелл, Том Хиддлстон, Идрис Эльба, Энди Серкис, Стэн Ли, Стеллан Скарсгард, Лу Ферриньо, Клаудия Ким

    Продолжительность: 02:22:54
    Перевод: Дублированный, Авторский.

    Описание:

    Локи, сводный брат Тора, возвращается, и в этот раз он не один. Земля на грани порабощения, и только лучшие из лучших могут спасти человечество.

    Ник Фьюри, глава международной организации Щ. И. Т., собирает выдающихся поборников справедливости и добра, чтобы отразить атаку. Под предводительством Капитана Америки Железный Человек, Тор, Невероятный Халк, Соколиный глаз и Чёрная Вдова вступают в войну с захватчиком.



    Файл
    Контейнер: МКV
    Качество: Blu-Ray Remux (2160p)
    Видео: HEVC, 3840x2160 (16:9), 23.976 fps, 43.1 Mb/s (0.217 bit/pixel)
    Аудио #1: DTS MAe, 48.0 kHz, 8 / 6 ch, 4 897 kb/s (Russian) | Дублированный |
    Аудио #2: AC-3, 48.0 kHz, 6 ch, 640 kb/s, CBR (Russian) | Дублированный |
    Аудио #3: DTS HRA, 48.0 kHz, 6 ch, 2 046 kb/s (Ukrainian) | Дублированный |
    Аудио #4: AC-3, 48.0 kHz, 6 ch, 640 kb/s, CBR (Ukrainian) | Дублированный |
    Аудио #5: DTS, 48.0 kHz, 6 ch, 1 509 kb/s, CBR (Russian) | Авторский, А. Гаврилов |
    Аудио #6: AC-3, 48.0 kHz, 6 ch, 640 kb/s, CBR (Russian)| Авторский, А. Гаврилов |
    Аудио #7: TrueHD, 48.0 kHz, Object Based / 8 ch, 4 631 kb/s, VBR (English)
    Аудио #8: DTS MA, 48.0 kHz, 8 ch, 4 229 kb/s (English)
    Аудио #9: AC-3, 48.0 kHz, 6 ch, 640 kb/s, CBR (English)
    Аудио #10: AC-3, 48.0 kHz, 2 ch, 320 kb/s, CBR (English) | Audiodeon |
    Аудио #11: AC-3, 48.0 kHz, 2 ch, 192 kb/s, CBR (English) | Commentary |
    Субтитры: Russian(fordced, full), Ukrainian(fordced, full), English



    MI


    Общее
    Уникальный идентификатор                 : 89781265065895585217910694706654242409 (0x438B3E2082214138F022BB405F586669)
    Полное имя                               : Avengers.Age.of.Ultron.2015.UHD.BDRemux.2160p.HEVC.HDR.IVA(RUS.UKR.ENG).ExKinoRay.mkv
    Формат                                   : Matroska
    Версия формата                           : Version 4 / Version 2
    Размер файла                             : 62,7 Гбайт
    Продолжительность                        : 2 ч. 21 м.
    Режим общего битрейта                    : Переменный
    Общий поток                              : 63,4 Мбит/сек
    Название фильма                          : Мстители: Эра Альтрона / Avengers: Age of Ultron ( 2015 ) UHD BDRemux | HDR, 4K | IVA(RUS.UKR.ENG) | ExKinoRay
    Дата кодирования                         : UTC 2018-08-07 19:22:32
    Программа кодирования                    : mkvmerge v25.0.0 ("Prog Noir") 64-bit
    Библиотека кодирования                   : libebml v1.3.6 + libmatroska v1.4.9
    Обложка                                  : Yes
    Attachments                              : cover

    Видео
    Идентификатор                            : 1
    Формат                                   : HEVC
    Формат/Информация                        : High Efficiency Video Coding
    Коммерческое название                    : HDR10
    Профиль формата                          : Main 10@L5.1@High
    Идентификатор кодека                     : V_MPEGH/ISO/HEVC
    Продолжительность                        : 2 ч. 21 м.
    Битрейт                                  : 43,1 Мбит/сек
    Ширина                                   : 3840 пикселей
    Высота                                   : 2160 пикселей
    Соотношение сторон                       : 16:9
    Режим частоты кадров                     : Постоянный
    Частота кадров                           : 23,976 (24000/1001) кадра/сек
    Цветовое пространство                    : YUV
    Субдискретизация насыщенности            : 4:2:0 (Type 2)
    Битовая глубина                          : 10 бит
    Бит/(Пиксели*Кадры)                      : 0.217
    Размер потока                            : 42,5 Гбайт (68%)
    Язык                                     : English
    Default                                  : Да
    Forced                                   : Нет
    Цветовой диапазон                        : Limited
    Основные цвета                           : BT.2020
    Характеристики трансфера                 : PQ
    Коэффициенты матрицы                     : BT.2020 non-constant
    MasteringDisplay_ColorPrimaries          : Display P3
    MasteringDisplay_Luminance               : min: 0.0001 cd/m2, max: 1000 cd/m2

    Аудио #1
    Идентификатор                            : 2
    Формат                                   : DTS
    Формат/Информация                        : Digital Theater Systems
    Профиль формата                          : MA / Core
    Идентификатор кодека                     : A_DTS
    Продолжительность                        : 2 ч. 21 м.
    Вид битрейта                             : Переменный / Постоянный
    Битрейт                                  : 4897 Кбит/сек / 1509 Кбит/сек
    Каналы                                   : 8 каналов / 6 каналов
    Расположение каналов                     : Front: L C R, Side: L R, Back: L R, LFE / Front: L C R, Side: L R, LFE
    Частота                                  : 48,0 КГц
    Частота кадров                           : 93,750 кадра/сек (512 SPF)
    Битовая глубина                          : 24 бит
    Метод сжатия                             : Без потерь / Lossy
    Размер потока                            : 4,83 Гбайт (8%)
    Заголовок                                : | Дублированный |
    Язык                                     : Russian
    Default                                  : Да
    Forced                                   : Нет

    Аудио #2
    Идентификатор                            : 3
    Формат                                   : AC-3
    Формат/Информация                        : Audio Coding 3
    Идентификатор кодека                     : A_AC3
    Продолжительность                        : 2 ч. 21 м.
    Вид битрейта                             : Постоянный
    Битрейт                                  : 640 Кбит/сек
    Каналы                                   : 6 каналов
    Расположение каналов                     : Front: L C R, Side: L R, LFE
    Частота                                  : 48,0 КГц
    Частота кадров                           : 31,250 кадров/сек (1536 SPF)
    Битовая глубина                          : 16 бит
    Метод сжатия                             : С потерями
    Размер потока                            : 647 Мбайт (1%)
    Заголовок                                : | Дублированный |
    Язык                                     : Russian
    ServiceKind                    : Complete Main
    Default                                  : Нет
    Forced                                   : Нет

    Аудио #3
    Идентификатор                            : 4
    Формат                                   : DTS
    Формат/Информация                        : Digital Theater Systems
    Профиль формата                          : HRA / Core
    Идентификатор кодека                     : A_DTS
    Продолжительность                        : 2 ч. 21 м.
    Вид битрейта                             : Постоянный
    Битрейт                                  : 2046 Кбит/сек / 1509 Кбит/сек
    Каналы                                   : 6 каналов
    Расположение каналов                     : Front: L C R, Side: L R, LFE
    Частота                                  : 48,0 КГц
    Частота кадров                           : 93,750 кадра/сек (512 SPF)
    Битовая глубина                          : 24 бит
    Метод сжатия                             : С потерями
    Размер потока                            : 2,02 Гбайт (3%)
    Заголовок                                : | Дублированный |
    Язык                                     : Ukrainian
    Default                                  : Нет
    Forced                                   : Нет

    Аудио #4
    Идентификатор                            : 5
    Формат                                   : AC-3
    Формат/Информация                        : Audio Coding 3
    Идентификатор кодека                     : A_AC3
    Продолжительность                        : 2 ч. 21 м.
    Вид битрейта                             : Постоянный
    Битрейт                                  : 640 Кбит/сек
    Каналы                                   : 6 каналов
    Расположение каналов                     : Front: L C R, Side: L R, LFE
    Частота                                  : 48,0 КГц
    Частота кадров                           : 31,250 кадров/сек (1536 SPF)
    Битовая глубина                          : 16 бит
    Метод сжатия                             : С потерями
    Размер потока                            : 649 Мбайт (1%)
    Заголовок                                : | Дублированный |
    Язык                                     : Ukrainian
    ServiceKind                    : Complete Main
    Default                                  : Нет
    Forced                                   : Нет

    Аудио #5
    Идентификатор                            : 6
    Формат                                   : DTS
    Формат/Информация                        : Digital Theater Systems
    Идентификатор кодека                     : A_DTS
    Продолжительность                        : 2 ч. 21 м.
    Вид битрейта                             : Постоянный
    Битрейт                                  : 1509 Кбит/сек
    Каналы                                   : 6 каналов
    Расположение каналов                     : Front: L C R, Side: L R, LFE
    Частота                                  : 48,0 КГц
    Частота кадров                           : 93,750 кадра/сек (512 SPF)
    Битовая глубина                          : 24 бит
    Метод сжатия                             : С потерями
    Размер потока                            : 1,49 Гбайт (2%)
    Заголовок                                : | AVO, А. Гаврилов |
    Язык                                     : Russian
    Default                                  : Нет
    Forced                                   : Нет

    Аудио #6
    Идентификатор                            : 7
    Формат                                   : AC-3
    Формат/Информация                        : Audio Coding 3
    Идентификатор кодека                     : A_AC3
    Продолжительность                        : 2 ч. 21 м.
    Вид битрейта                             : Постоянный
    Битрейт                                  : 640 Кбит/сек
    Каналы                                   : 6 каналов
    Расположение каналов                     : Front: L C R, Side: L R, LFE
    Частота                                  : 48,0 КГц
    Частота кадров                           : 31,250 кадров/сек (1536 SPF)
    Битовая глубина                          : 16 бит
    Метод сжатия                             : С потерями
    Размер потока                            : 647 Мбайт (1%)
    Заголовок                                : | AVO, А. Гаврилов |
    Язык                                     : Russian
    ServiceKind                    : Complete Main
    Default                                  : Нет
    Forced                                   : Нет

    Аудио #7
    Идентификатор                            : 8
    Формат                                   : TrueHD
    Профиль формата                          : TrueHD+Atmos / TrueHD
    Идентификатор кодека                     : A_TRUEHD
    Продолжительность                        : 2 ч. 21 м.
    Вид битрейта                             : Переменный
    Битрейт                                  : 4631 Кбит/сек
    Максимальный битрейт                     : 6390 Кбит/сек
    Каналы                                   : Object Based / 8 каналов
    Расположение каналов                     : Object Based / Front: L C R, Side: L R, Back: L R, LFE
    Частота                                  :  / 48,0 КГц
    Частота кадров                           : 1200,000 кадров/сек (40 SPF)
    Метод сжатия                             : Без потерь
    Размер потока                            : 4,57 Гбайт (7%)
    Заголовок                                : | Original |
    Язык                                     : English
    Default                                  : Нет
    Forced                                   : Нет

    Аудио #8
    Идентификатор                            : 9
    Формат                                   : DTS
    Формат/Информация                        : Digital Theater Systems
    Профиль формата                          : MA / Core
    Идентификатор кодека                     : A_DTS
    Продолжительность                        : 2 ч. 21 м.
    Вид битрейта                             : Переменный / Постоянный
    Битрейт                                  : 4229 Кбит/сек / 1509 Кбит/сек
    Каналы                                   : 8 каналов / 6 каналов
    Расположение каналов                     : Front: L C R, Side: L R, Back: L R, LFE / Front: L C R, Side: L R, LFE
    Частота                                  : 48,0 КГц
    Частота кадров                           : 93,750 кадра/сек (512 SPF)
    Битовая глубина                          : 24 бит
    Метод сжатия                             : Без потерь / Lossy
    Размер потока                            : 4,17 Гбайт (7%)
    Заголовок                                : | Original |
    Язык                                     : English
    Default                                  : Нет
    Forced                                   : Нет

    Аудио #9
    Идентификатор                            : 10
    Формат                                   : AC-3
    Формат/Информация                        : Audio Coding 3
    Идентификатор кодека                     : A_AC3
    Продолжительность                        : 2 ч. 21 м.
    Вид битрейта                             : Постоянный
    Битрейт                                  : 640 Кбит/сек
    Каналы                                   : 6 каналов
    Расположение каналов                     : Front: L C R, Side: L R, LFE
    Частота                                  : 48,0 КГц
    Частота кадров                           : 31,250 кадров/сек (1536 SPF)
    Битовая глубина                          : 16 бит
    Метод сжатия                             : С потерями
    Размер потока                            : 647 Мбайт (1%)
    Заголовок                                : | Original, AC3 Core |
    Язык                                     : English
    ServiceKind                    : Complete Main
    Default                                  : Нет
    Forced                                   : Нет

    Аудио #10
    Идентификатор                            : 11
    Формат                                   : AC-3
    Формат/Информация                        : Audio Coding 3
    Идентификатор кодека                     : A_AC3
    Продолжительность                        : 2 ч. 21 м.
    Вид битрейта                             : Постоянный
    Битрейт                                  : 320 Кбит/сек
    Каналы                                   : 2 канала
    Расположение каналов                     : Front: L R
    Частота                                  : 48,0 КГц
    Частота кадров                           : 31,250 кадров/сек (1536 SPF)
    Битовая глубина                          : 16 бит
    Метод сжатия                             : С потерями
    Размер потока                            : 323 Мбайт (1%)
    Заголовок                                : | Audiodeon |
    Язык                                     : English
    ServiceKind                    : Complete Main
    Default                                  : Нет
    Forced                                   : Нет

    Аудио #11
    Идентификатор                            : 12
    Формат                                   : AC-3
    Формат/Информация                        : Audio Coding 3
    Идентификатор кодека                     : A_AC3
    Продолжительность                        : 2 ч. 21 м.
    Вид битрейта                             : Постоянный
    Битрейт                                  : 192 Кбит/сек
    Каналы                                   : 2 канала
    Расположение каналов                     : Front: L R
    Частота                                  : 48,0 КГц
    Частота кадров                           : 31,250 кадров/сек (1536 SPF)
    Битовая глубина                          : 16 бит
    Метод сжатия                             : С потерями
    Размер потока                            : 194 Мбайт (0%)
    Заголовок                                : | Commentary |
    Язык                                     : English
    ServiceKind                    : Complete Main
    Default                                  : Нет
    Forced                                   : Нет

    Текст #1
    Идентификатор                            : 13
    Формат                                   : UTF-8
    Идентификатор кодека                     : S_TEXT/UTF8
    Идентификатор кодека/Информация          : UTF-8 Plain Text
    Продолжительность                        : 2 ч. 18 м.
    Битрейт                                  : 0 бит/сек
    ElementCount                             : 8
    Размер потока                            : 516 байт (0%)
    Заголовок                                : Forced
    Язык                                     : Russian
    Default                                  : Да
    Forced                                   : Да

    Текст #2
    Идентификатор                            : 14
    Формат                                   : UTF-8
    Идентификатор кодека                     : S_TEXT/UTF8
    Идентификатор кодека/Информация          : UTF-8 Plain Text
    Продолжительность                        : 2 ч. 20 м.
    Битрейт                                  : 83 бит/сек
    ElementCount                             : 1880
    Размер потока                            : 85,5 Кбайт (0%)
    Заголовок                                : Full
    Язык                                     : Russian
    Default                                  : Нет
    Forced                                   : Нет

    Текст #3
    Идентификатор                            : 15
    Формат                                   : UTF-8
    Идентификатор кодека                     : S_TEXT/UTF8
    Идентификатор кодека/Информация          : UTF-8 Plain Text
    Продолжительность                        : 2 ч. 18 м.
    Битрейт                                  : 1 бит/сек
    ElementCount                             : 29
    Размер потока                            : 1,21 Кбайт (0%)
    Заголовок                                : Forced
    Язык                                     : Ukrainian
    Default                                  : Нет
    Forced                                   : Да

    Текст #4
    Идентификатор                            : 16
    Формат                                   : UTF-8
    Идентификатор кодека                     : S_TEXT/UTF8
    Идентификатор кодека/Информация          : UTF-8 Plain Text
    Продолжительность                        : 2 ч. 20 м.
    Битрейт                                  : 80 бит/сек
    ElementCount                             : 1877
    Размер потока                            : 82,9 Кбайт (0%)
    Заголовок                                : Full
    Язык                                     : Ukrainian
    Default                                  : Нет
    Forced                                   : Нет

    Текст #5
    Идентификатор                            : 17
    Формат                                   : UTF-8
    Идентификатор кодека                     : S_TEXT/UTF8
    Идентификатор кодека/Информация          : UTF-8 Plain Text
    Продолжительность                        : 2 ч. 12 м.
    Битрейт                                  : 54 бит/сек
    ElementCount                             : 1857
    Размер потока                            : 53,3 Кбайт (0%)
    Заголовок                                : Full
    Язык                                     : English
    Default                                  : Нет
    Forced                                   : Нет

    Меню
    00:00:00.000                             : en:Battle for Loki"s Scepter
    00:12:15.192                             : en:Birth of Ultron
    00:21:23.949                             : en:Avengers House Party
    00:33:01.771                             : en:Attack Aftermath
    00:36:07.623                             : en:Ultron Meers the Twins
    00:42:00.768                             : en:Mind Games
    00:52:44.744                             : en:Hulk vs. Hulkbuster
    00:59:01.871                             : en:The Safe House
    01:15:51.088                             : en:Cradle Robbing
    01:27:08.598                             : en:Birthof the Vision
    01:36:44.757                             : en:The Battle of Sokovia
    01:54:35.326                             : en:"Is That the Best You Can Do?"
    02:06:27.580                             : en:The New Avengers
    02:11:08.026                             : en:End Credits

    Свернуть
    Инструкция по скачиванию
     1  Качаем uTorrent версии 2.0 и выше
     2  После установки, жмем выше под постером на ссылку Скачать [MediaGet] или Скачать .torrent
     3  Открываем скачанный файл через соответствующий клиент: MediaGet или uTorrent
     4  Ждем пока подключатся участники
     5  Качаем
    Комментарии о  Мстители: Эра Альтрона / Avengers: Age of Ultron | BDRemux 
    Ближайшее в кино
    Вверх