• Игры для PS4
  • Игры для PS3
  • Игры для XBOX360
  • Игры для PC
  • Игры для PS2
  • Игры для PSP
  • Для телефонов
  • Музыка
  • Книги / Журналы
  • Обои
  • Опрос
    Удобен ли сайт в использовании?
      0
    • Очень удобен, все понятно1,1,false,300,full
    • Удобен1,2,false,300,full
    • Средне1,3,false,300,full
    • Неудобен, трудно ориентироваться1,4,false,300,full
    • Совсем неудобен1,5,false,300,full
    Статистика
    Всего онлайн -
    Гостей -
    Пользователей -
    Короли трекера
    Благодарности () Закрыть
    Информация о фильме
    Название: Бои без правил
    Оригинальное название: A Prayer Before Dawn
    Год выхода: 2017
    Жанр: Боевик, драма, криминал, биография, спорт
    Режиссер: Жан-Стефан Совер
    В ролях: Джо Коул, Витхая Пансрингарм, Паня Йиммумрхай, Порнчанок Мабкланг, Николас Шейк, Билли Мур, Сура Сирмалай, Сакда Ниамхом, Сомлок Камсинг, Чалоемпорн Саватсук

    О фильме:
    Молодой британец Билли Мур попадает в одну из тюрем Таиланда, известную своей жестокостью и невыносимыми условиями для заключённых. Чтобы выжить, Билли решает заняться муай-тай - тайским боксом, одним из самых жёстких видов боевых искусств.



    Страна: Франция, Великобритания, Камбоджа, США, Китай
    Студия: Senorita Films, Indochina Productions, HanWay Films
    Продолжительность: 01:57:08
    Перевод: Профессиональный многоголосый | HDRezka Studio

    Файл
    Кодек: x264
    Качество: WEB-DL 1080p | A.Prayer.Before.Dawn.2017.1080p.AMZN.WEB-DL.DDP5.1.H.264-NTG
    Видео: MPEG-4 AVC, 9426 Kбит/с, 1920x800
    Звук #1: Русский | AC3, 2 ch, 192 Кбит/с | Профессиональный многоголосый | HDRezka Studio
    Звук #2: Английский | EAC3, 6 ch, 640 Кбит/с
    Субтитры: Английские



    Инфо-файл
    Формат                                   : Matroska
    Версия формата                           : Version 2
    Размер файла                             : 8,56 Гбайт
    Продолжительность                        : 1 ч. 57 м.
    Общий поток                              : 10,5 Мбит/сек
    Название фильма                          : A.Prayer.Before.Dawn.2017.1080p.AMZN.WEB-DL.by.zzZGVvv
    Дата кодирования                         : UTC 2018-08-08 03:42:11
    Программа кодирования                    : mkvmerge v5.8.0 ("No Sleep / Pillow") built on Sep  2 2012 15:37:04
    Библиотека кодирования                   : libebml v1.2.3 + libmatroska v1.3.0
    Attachements                             : cover.jpg

    Видео
    Идентификатор                            : 1
    Формат                                   : AVC
    Формат/Информация                        : Advanced Video Codec
    Профиль формата                          : High@L4
    Параметр CABAC формата                   : Да
    Параметр ReFrames формата                : 4 кадра
    Идентификатор кодека                     : V_MPEG4/ISO/AVC
    Продолжительность                        : 1 ч. 57 м.
    Битрейт                                  : 9426 Кбит/сек
    Ширина                                   : 1920 пикселей
    Высота                                   : 800 пикселей
    Соотношение сторон                       : 2,40:1
    Режим частоты кадров                     : Постоянный
    Частота кадров                           : 23,976 кадра/сек
    Цветовое пространство                    : YUV
    Субдискретизация насыщенности            : 4:2:0
    Битовая глубина                          : 8 бит
    Тип развёртки                            : Прогрессивная
    Бит/(Пиксели*Кадры)                      : 0.256
    Размер потока                            : 7,71 Гбайт (90%)
    Заголовок                                : A.Prayer.Before.Dawn.2017.1080p.AMZN.WEB-DL
    Язык                                     : English
    Default                                  : Да
    Forced                                   : Нет
    Цветовой диапазон                        : Limited
    Основные цвета                           : BT.709
    Характеристики трансфера                 : BT.709
    Коэффициенты матрицы                     : BT.709

    Аудио #1
    Идентификатор                            : 2
    Формат                                   : AC-3
    Формат/Информация                        : Audio Coding 3
    Расширение режима                        : CM (complete main)
    Параметр Endianness формата              : Big
    Идентификатор кодека                     : A_AC3
    Продолжительность                        : 1 ч. 57 м.
    Вид битрейта                             : Постоянный
    Битрейт                                  : 192 Кбит/сек
    Каналы                                   : 2 канала
    Расположение каналов                     : Front: L R
    Частота                                  : 48,0 КГц
    Метод сжатия                             : С потерями
    Размер потока                            : 161 Мбайт (2%)
    Заголовок                                : HDRezka Studio
    Язык                                     : Russian
    Default                                  : Да
    Forced                                   : Нет

    Аудио #2
    Идентификатор                            : 3
    Формат                                   : E-AC-3
    Формат/Информация                        : Audio Coding 3
    Параметр Endianness формата              : Big
    Идентификатор кодека                     : A_EAC3
    Продолжительность                        : 1 ч. 57 м.
    Вид битрейта                             : Постоянный
    Битрейт                                  : 640 Кбит/сек
    Каналы                                   : 6 каналов
    Расположение каналов                     : Front: L C R, Side: L R, LFE
    Частота                                  : 48,0 КГц
    Метод сжатия                             : С потерями
    Размер потока                            : 536 Мбайт (6%)
    Язык                                     : English
    Default                                  : Нет
    Forced                                   : Нет

    Текст
    Идентификатор                            : 4
    Формат                                   : UTF-8
    Идентификатор кодека                     : S_TEXT/UTF8
    Идентификатор кодека/Информация          : UTF-8 Plain Text
    Заголовок                                : SDH
    Язык                                     : English
    Default                                  : Нет
    Forced                                   : Нет

    Свернуть
    Похожие раздачи Искать похожие
    Инструкция по скачиванию
     1  Качаем uTorrent версии 2.0 и выше
     2  После установки, жмем выше под постером на ссылку Скачать [MediaGet] или Скачать .torrent
     3  Открываем скачанный файл через соответствующий клиент: MediaGet или uTorrent
     4  Ждем пока подключатся участники
     5  Качаем
    Комментарии о  Бои без правил / A Prayer Before Dawn | WEB-DL 1080p 
    Ближайшее в кино
    Вверх