• Игры для PS4
  • Игры для PS3
  • Игры для XBOX360
  • Игры для PC
  • Игры для PS2
  • Игры для PSP
  • Для телефонов
  • Музыка
  • Книги / Журналы
  • Обои
  • Опрос
    Откуда Вы о нас узнали?
      0
    • От знакомых2,1,false,300,full
    • Из социальных сетей2,2,false,300,full
    • Из поисковых систем2,3,false,300,full
    • Другое2,4,false,300,full
    Статистика
    Всего онлайн -
    Гостей -
    Пользователей -
    Короли трекера
    Благодарности () Закрыть
    Информация о фильме
    Название: Роботы-убийцы
    Оригинальное название: Chopping Mall
    Год выхода: 1986
    Жанр:  Ужасы, фантастика, комедия
    Режиссер: Джим Уайнорски
    В ролях: Келли Маруни, Тони О’Делл, Расселл Тодд, Кэрри Эмерсон, Барбара Крэмптон, Ник Сигал, Джон Терлески, Сьюзи Слэйтер, Пол Бартел, Мэри Воронов

    О фильме :
    В универмаге новые технологии безопасности. Теперь обычных охранников будут заменять три робота, по одному на этаж. В обязанность роботов входит только поимка воришек, отличить воров от персонала они могут по специальной карточке — удостоверению работника магазина. В первый же день дежурства роботов подростки, которые подрабатывали в универмаге, решили остаться после работы и повеселиться. Но электронная начинка роботов дает сбой, и они начинают свою кровавую охоту. Подростки против роботов-убийц — кто кого?



    Страна: США
    Студия: Concorde Pictures, Trinity Pictures
    Продолжительность: 01:16:28
    Перевод: Авторский (одноголосый закадровый) Сергей Визгунов

    Файл
    Формат: MKV
    Качество: HDRip-AVC
    Видео: MPEG-4 AVC, 768x432, ~ 1286 Кбит/с
    Аудио: [img]http://i93.fastpic.ru/big/2017/0727/c0/4b72f0369a3393219ed5935e91fc15c0.gif[/img] AAC-HE, 2 ch, ~ 76 Кбит/с
    Субтитры: Русские (полные)

    MI
    Общее
    Уникальный идентификатор : 244984015269783387963349025130753938854 (0xB84E3480CE6FB553B0C7F9A90851D5A6)
    Полное имя : D:MOVIESChopping Mall.1986.ExKinoRay.mkv
    Формат : Matroska
    Версия формата : Version 4 / Version 2
    Размер файла : 746 Мбайт
    Продолжительность : 1 ч. 16 м.
    Общий поток : 1364 Кбит/сек
    Дата кодирования : UTC 2018-08-08 04:33:10
    Программа кодирования : mkvmerge v15.0.0 ("Duel with the Devil") 64-bit
    Библиотека кодирования : libebml v1.3.5 + libmatroska v1.4.5

    Видео
    Идентификатор : 1
    Формат : AVC
    Формат/Информация : Advanced Video Codec
    Профиль формата : High@L4.1
    Параметр CABAC формата : Да
    Параметр RefFrames формата : 12 кадров
    Идентификатор кодека : V_MPEG4/ISO/AVC
    Продолжительность : 1 ч. 16 м.
    Битрейт : 1286 Кбит/сек
    Ширина : 768 пикселей
    Высота : 432 пикселя
    Соотношение сторон : 16:9
    Режим частоты кадров : Постоянный
    Частота кадров : 23,976 (24000/1001) кадра/сек
    Цветовое пространство : YUV
    Субдискретизация насыщенности : 4:2:0
    Битовая глубина : 8 бит
    Тип развёртки : Прогрессивная
    Бит/(Пиксели*Кадры) : 0.162
    Размер потока : 703 Мбайт (94%)
    Библиотека кодирования : x264 core 152 r2851kMod ba24899
    Настройки программы : cabac=1 / ref=12 / deblock=1:-3:-3 / analyse=0x3:0x133 / me=umh / subme=10 / psy=1 / fade_compensate=0.00 / psy_rd=1.00:0.16 / mixed_ref=1 / me_range=32 / chroma_me=1 / trellis=2 / 8x8dct=1 / cqm=0 / deadzone=21,11 / fast_pskip=0 / chroma_qp_offset=-3 / threads=6 / lookahead_threads=1 / sliced_threads=0 / nr=0 / decimate=0 / interlaced=0 / bluray_compat=0 / constrained_intra=0 / bframes=11 / b_pyramid=2 / b_adapt=2 / b_bias=0 / direct=3 / weightb=1 / open_gop=0 / weightp=2 / keyint=240 / keyint_min=23 / scenecut=40 / intra_refresh=0 / rc_lookahead=40 / rc=2pass / mbtree=1 / bitrate=1286 / ratetol=1.0 / qcomp=0.60 / qpmin=0 / qpmax=69 / qpstep=4 / cplxblur=20.0 / qblur=0.5 / ip_ratio=1.40 / aq=3:1.00
    Default : Да
    Forced : Нет

    Аудио
    Идентификатор : 2
    Формат : AAC
    Формат/Информация : Advanced Audio Codec
    Профиль формата : HE-AAC / LC
    Идентификатор кодека : A_AAC
    Продолжительность : 1 ч. 16 м.
    Битрейт : 76,0 Кбит/сек
    Каналы : 2 канала
    Расположение каналов : Front: L R
    Частота : 48,0 КГц / 24,0 КГц
    Частота кадров : 23,438 кадра/сек (1024 SPF)
    Метод сжатия : С потерями
    Задержка видео : 31 мс.
    Размер потока : 41,6 Мбайт (6%)
    Язык : Russian
    Default : Да
    Forced : Нет

    Текст
    Идентификатор : 3
    Формат : UTF-8
    Идентификатор кодека : S_TEXT/UTF8
    Идентификатор кодека/Информация : UTF-8 Plain Text
    Продолжительность : 1 ч. 15 м.
    Битрейт : 57 бит/сек
    ElementCount : 575
    Размер потока : 32,1 Кбайт (0%)
    Default : Нет
    Forced : Нет

    Меню
    00:00:00.000 : en:1
    00:08:07.112 : en:2
    00:13:33.438 : en:3
    00:18:53.090 : en:4
    00:25:50.632 : en:5
    00:31:29.471 : en:6
    00:38:01.237 : en:7
    00:44:47.310 : en:8
    00:51:46.061 : en:9
    00:57:24.733 : en:10
    01:03:52.412 : en:11
    01:13:04.380 : en:12
    Свернуть


    Скриншоты

    [screen]http://img11.lostpic.net/2018/08/08/ff2cc3a0e12497586a7bd28940a8c7a8.png[/screen][screen]http://img11.lostpic.net/2018/08/08/1599e9a4df0193a63027ff2fc375df5d.png[/screen][screen]http://img11.lostpic.net/2018/08/08/9285043cfd630b872e02a57835c1bb7c.png[/screen][screen]http://img11.lostpic.net/2018/08/08/eb938ab31caee48206f475ab433ee395.png[/screen][screen]http://img11.lostpic.net/2018/08/08/ff2cc3a0e12497586a7bd28940a8c7a8.png[/screen][screen]http://img11.lostpic.net/2018/08/08/fb344ce2ff3422e0c36194044fa23f26.png[/screen][screen]http://img11.lostpic.net/2018/08/08/1b6a4cf28eaa155a835c3ecf06726d70.png[/screen][screen]http://img11.lostpic.net/2018/08/08/da90d3fd674ee4f68a2f97501db19af2.png[/screen]
    Свернуть


    [img]http://i101.fastpic.ru/big/2018/0205/db/2bb5d8d6418a0fdc34277325cb111edb.gif[/img][img]http://i92.fastpic.ru/big/2017/0727/ee/d5deb5b73669b4c45974c6b5d6c309ee.gif[/img] [img]http://img12.lostpic.net/2018/03/09/13af6981458d1d0b6a9d5e5286e0688e.gif[/img][img]http://i92.fastpic.ru/big/2017/0727/34/cf9a17c70dfe7fe87e42af3f9f29e734.gif[/img]
    Похожие раздачи Искать похожие
    Инструкция по скачиванию
     1  Качаем uTorrent версии 2.0 и выше
     2  После установки, жмем выше под постером на ссылку Скачать [MediaGet] или Скачать .torrent
     3  Открываем скачанный файл через соответствующий клиент: MediaGet или uTorrent
     4  Ждем пока подключатся участники
     5  Качаем
    Комментарии о  Роботы-убийцы / Chopping Mall | HDRip-AVC 
    Ближайшее в кино
    Вверх