• Игры для PS4
  • Игры для PS3
  • Игры для XBOX360
  • Игры для PC
  • Игры для PS2
  • Игры для PSP
  • Для телефонов
  • Музыка
  • Книги / Журналы
  • Обои
  • Опрос
    Удобен ли сайт в использовании?
      0
    • Очень удобен, все понятно1,1,false,300,full
    • Удобен1,2,false,300,full
    • Средне1,3,false,300,full
    • Неудобен, трудно ориентироваться1,4,false,300,full
    • Совсем неудобен1,5,false,300,full
    Статистика
    Всего онлайн -
    Гостей -
    Пользователей -
    Короли трекера
    Благодарности () Закрыть
    Детектив Конан (фильм 08):Крылатый волшебник / Detective Conan: Magician of the Silver Sky / Meitantei Conan: Ginyoku no Magician

    Информация о фильме
    Название: Детектив Конан 8: Крылатый волшебник
    Оригинальное название: Meitantei Conan: Ginyoku no Magician
    Год выхода: 2004
    Жанр: приключения, детектив
    Режиссер: Ямамото Ясуйтиро

    О фильме:
    Детектив-старшеклассник Кудо Шиничи благодаря своему интеллекту раскрыл множество дел. Однажды в парке аттракционов он замечает подозрительных людей в черном и решает проследить за ними. Наблюдая за сделкой, юный детектив не заметил, как сзади подкрался еще один из людей в черном, который оглушил Кудо и дал ему принять странный наркотик, из-за которого тело Шиничи уменьшилось. Решив скрыть свою личность, он пытается раздобыть информацию по этим людям в черном и вернуть себе прежний облик, по пути распутывая разнообразные дела.
    Восьмой фильм расскажет об очередном вызове Кайто Кида. На этот раз его целью стал "Сапфир Судьбы", который используется в постановке "Жозефины", повествующей о первой супруге Наполеона Бонапарта.

    Доп. информация:
    Релиз GSGroup
    [img]http://i3.fastpic.ru/big/2009/1023/ef/0974828d0523f74d37576fa26425e7ef.gif[/img]

    [img]http://imdb.snick.ru/ratefor/02/tt1133559.png[/img]

    Страна: Япония
    Студия: TMS
    Продолжительность: 01:48:14
    Перевод: Любительский одноголосый (Persona99)

    Файл
    Кодек: XviD
    Качество: HDRip
    Видео: 720x408, 23.976 fps, 1464 Kbps, 8 bits
    Звук:
    1. AC3 48 КГц; 192 Кбит/сек, 2 ch Язык Русский (в составе контейнера) ; Озвучка: Любительский одноголосый (Persona99)
    2. AC3 48 КГц; 192 Кбит/сек, 2 ch, Язык Японский ; Озвучка 2: Оригинал
    Субтитры: ass, srt Язык субтитров русский ; Перевод, тайминг: Smarter
    Sempl:

    Подробные тех. данные

    General
    Complete name                            : Detective Conan Movie 08 (2004)Detective Conan Movie08 - Ginyoku no Magician.[Persona99].2004.XviD.720x400.AC3.rus.jpn.avi
    Format                                   : AVI
    Format/Info                              : Audio Video Interleave
    File size                                : 1.41 GiB
    Duration                                 : 1h 48mn
    Overall bit rate                         : 1 862 Kbps
    Writing application                      : VirtualDubMod 1.5.10.2 (build 2540/release)
    Writing library                          : VirtualDubMod build 2540/release

    Video
    ID                                       : 0
    Format                                   : MPEG-4 Visual
    Format profile                           : Advanced Simple@L5
    Format settings, BVOP                    : 2
    Format settings, QPel                    : No
    Format settings, GMC                     : No warppoints
    Format settings, Matrix                  : Default (H.263)
    Codec ID                                 : XVID
    Codec ID/Hint                            : XviD
    Duration                                 : 1h 48mn
    Bit rate                                 : 1 464 Kbps
    Width                                    : 720 pixels
    Height                                   : 408 pixels
    Display aspect ratio                     : 16:9
    Frame rate                               : 23.976 fps
    Color space                              : YUV
    Chroma subsampling                       : 4:2:0
    Bit depth                                : 8 bits
    Scan type                                : Progressive
    Compression mode                         : Lossy
    Bits/(Pixel*Frame)                       : 0.208
    Stream size                              : 1.11 GiB (79%)
    Writing library                          : XviD 67

    Audio #1
    ID                                       : 1
    Format                                   : AC-3
    Format/Info                              : Audio Coding 3
    Mode extension                           : CM (complete main)
    Format settings, Endianness              : Big
    Codec ID                                 : 2000
    Duration                                 : 1h 48mn
    Bit rate mode                            : Constant
    Bit rate                                 : 192 Kbps
    Channel(s)                               : 2 channels
    Channel positions                        : Front: L R
    Sampling rate                            : 48.0 KHz
    Compression mode                         : Lossy
    Stream size                              : 149 MiB (10%)
    Alignment                                : Split accross interleaves
    Interleave, duration                     : 42 ms (1.00 video frame)
    Interleave, preload duration             : 500 ms

    Audio #2
    ID                                       : 2
    Format                                   : AC-3
    Format/Info                              : Audio Coding 3
    Mode extension                           : CM (complete main)
    Format settings, Endianness              : Big
    Codec ID                                 : 2000
    Duration                                 : 1h 48mn
    Bit rate mode                            : Constant
    Bit rate                                 : 192 Kbps
    Channel(s)                               : 2 channels
    Channel positions                        : Front: L R
    Sampling rate                            : 48.0 KHz
    Compression mode                         : Lossy
    Stream size                              : 149 MiB (10%)
    Alignment                                : Split accross interleaves
    Interleave, duration                     : 42 ms (1.00 video frame)
    Interleave, preload duration             : 500 ms
    Свернуть


    Похожие раздачи Искать похожие
    Инструкция по скачиванию
     1  Качаем uTorrent версии 2.0 и выше
     2  После установки, жмем выше под постером на ссылку Скачать [MediaGet] или Скачать .torrent
     3  Открываем скачанный файл через соответствующий клиент: MediaGet или uTorrent
     4  Ждем пока подключатся участники
     5  Качаем
    Комментарии о  Детектив Конан: Крылатый волшебник / Meitantei Conan: Ginyoku no Magician | HDRip 
    Ближайшее в кино
    Вверх