• Игры для PS4
  • Игры для PS3
  • Игры для XBOX360
  • Игры для PC
  • Игры для PS2
  • Игры для PSP
  • Для телефонов
  • Музыка
  • Книги / Журналы
  • Обои
  • Опрос
    Удобен ли сайт в использовании?
      0
    • Очень удобен, все понятно1,1,false,300,full
    • Удобен1,2,false,300,full
    • Средне1,3,false,300,full
    • Неудобен, трудно ориентироваться1,4,false,300,full
    • Совсем неудобен1,5,false,300,full
    Статистика
    Всего онлайн -
    Гостей -
    Пользователей -
    Короли трекера
    Благодарности () Закрыть
    Информация о фильме
    Название: Уэнтуорт / Вентворт
    Оригинальное название: Wentworth
    Год выпуска: 2018
    Жанр:  Криминальная драма, ремейк
    Режиссер: Кевин Карлин, Катрин Миллар, Стив Джодрелл
    В ролях: Даниэль Кормак, Николь Да Силва, Крис МакКвейд, Лианна Уолсмен, Кейт Эткинсон, Селия Айрлэнд, Шарина Клэнтон, Аарон Джеффри, Робби Магасива, Катрина Милошевич

    О фильме:
    Уэнтуорт — драматический сериал с очень динамичным и захватывающим сюжетом о сотрудниках и заключенных сверхзасекреченной женской тюрьмы в Австралии. Здесь существуют свои правила выживания, несоблюдение которых может стоить жизни. Каждая серия — это история жизни одного из героев. Мы лучше узнаем о его характере, об обстоятельствах жизни, которые привели его в тюрьму. И оказывается, что разница между заключенными и служащими тюрьмы не такая уже большая, и те, и другие, являются узниками, только каждый по-своему.

    [img]https://u.myshows.me/r/31704.png[/img]
    Страна: Австралия
    Студия:   FremantleMedia Australia
    Продолжительность: 8 x ~ 00:44:00
    Перевод: Любительский многоголосый [ColdFilm]

    Файл
    Кодек: x264 (AVC)
    Качество: HDTVRip 720p
    Видео: 1280x720, 3500 Кбит/с, 25.000 fps
    Звук: 48 kHz,AC3 , 2/0 (L,R) ch, ~192 kbps

    [img]http://s020.radikal.ru/i712/1701/ad/1bb0bd9bc94a.gif[/img]



    MI
    General
    Unique ID                   : 247421821353964159532439736853646979278 (0xBA23B59F6F7DDB4FA38590833976B0CE)
    Complete name               : D:Wentworth.S06E01.720p.ColdFilm.mkv
    Format                      : Matroska
    Format version              : Version 2
    File size                   : 1.14 GiB
    Duration                    : 45 min 20 s
    Overall bit rate            : 3 615 kb/s
    Encoded date                : UTC 2018-06-20 14:01:45 / UTC 2017-11-20 18:25:40
    Writing application         : mkvmerge v3.3.0 ("Language") built on Mar 24 2010 14:59:24
    Writing library             : libebml v0.8.0 + libmatroska v0.9.0 / Lavf54.63.104

    Video
    ID                          : 1
    Format                      : AVC
    Format/Info                 : Advanced Video Codec
    Format profile              : Main@L3.1
    Format settings             : CABAC / 1 Ref Frames
    Format settings, CABAC      : Yes
    Format settings, ReFrames   : 1 frame
    Codec ID                    : V_MPEG4/ISO/AVC
    Duration                    : 45 min 20 s
    Bit rate                    : 3 500 kb/s
    Width                       : 1 280 pixels
    Height                      : 720 pixels
    Display aspect ratio        : 16:9
    Frame rate mode             : Constant
    Frame rate                  : 25.000 FPS
    Color space                 : YUV
    Chroma subsampling          : 4:2:0
    Bit depth                   : 8 bits
    Scan type                   : Progressive
    Bits/(Pixel*Frame)          : 0.152
    Stream size                 : 1.06 GiB (93%)
    Writing library             : x264 core 129
    Default                     : No
    Forced                      : No

    Audio
    ID                          : 2
    Format                      : AC-3
    Format/Info                 : Audio Coding 3
    Codec ID                    : A_AC3
    Duration                    : 45 min 20 s
    Bit rate mode               : Constant
    Bit rate                    : 192 kb/s
    Channel(s)                  : 2 channels
    Channel positions           : Front: L R
    Sampling rate               : 48.0 kHz
    Frame rate                  : 31.250 FPS (1536 SPF)
    Bit depth                   : 16 bits
    Compression mode            : Lossy
    Stream size                 : 62.3 MiB (5%)
    Service kind                : Complete Main
    Default                     : Yes
    Forced                      : No

    Свернуть


    [img]http://a.radikal.ru/a33/1801/c9/144696cc967a.png[/img]
    Похожие раздачи Искать похожие
    Инструкция по скачиванию
     1  Качаем uTorrent версии 2.0 и выше
     2  После установки, жмем выше под постером на ссылку Скачать [MediaGet] или Скачать .torrent
     3  Открываем скачанный файл через соответствующий клиент: MediaGet или uTorrent
     4  Ждем пока подключатся участники
     5  Качаем
    Комментарии о  Уэнтуорт / Вентворт / Wentworth [Сезон 06 | 01-08 серии из 12] | HDTVRip 720p 
    Ближайшее в кино
    Вверх