• Игры для PS4
  • Игры для PS3
  • Игры для XBOX360
  • Игры для PC
  • Игры для PS2
  • Игры для PSP
  • Для телефонов
  • Музыка
  • Книги / Журналы
  • Обои
  • Опрос
    Удобен ли сайт в использовании?
      0
    • Очень удобен, все понятно1,1,false,300,full
    • Удобен1,2,false,300,full
    • Средне1,3,false,300,full
    • Неудобен, трудно ориентироваться1,4,false,300,full
    • Совсем неудобен1,5,false,300,full
    Статистика
    Всего онлайн -
    Гостей -
    Пользователей -
    Короли трекера
    Благодарности () Закрыть
    Информация о фильме
    Название: Болото
    Оригинальное название: Venom
    Год выхода: 2005
    Жанр: Ужасы
    Режиссер: Джим Гиллеспи
    В ролях: Агнес Брукнер, Джонатан Джексон, Лаура Рэмси, Ди Джей Котрона, Рик Крамер, Миган Гуд, Бижу Филлипс, Метод Мэн, Павел Жайда, Даветта Шервуд, Стэйси Трэвис, Маркус Лайл Браун, Джеймс Пикенс мл., Дебора Дьюк, Майкл Джеймс Дьюкс, Дэвид Мишель

    О фильме: Когда Рей помогал пожилой негритянке в дорожном происшествии на мосту, его покусали змеи, которые были у нее в чемодане. Потеряв сознание, он упал с моста и утонул. Спасённая бабуля ужаснулась, сказав, что в вуду при помощи этих змей, она высасывала злую сторону из плохих людей. Но покусав мужчину, они тем самым переместили в него всю плохую энергию, что накопилась в них за многие годы. И теперь оживший Рей, одержимый всеми возможными демонами, будет приносить им кровавые человеческие жертвы.

    [img]http://i89.fastpic.ru/big/2017/0502/69/67d521d70873d2399dac9e7d05d0b369.png[/img]

    Страна: США
    Продолжительность: 01:26:52
    Перевод: Профессиональный (многоголосый, закадровый) - СТС
    Субтитры: Нет

    Файл
    Кодек: XviD
    Качество: HDRip
    Видео: 688x384 (1.79:1), 23.976 fps, XviD build 73 ~987 kbps avg, 0.16 bit/pixel
    Звук: 48 kHz, MPEG Layer 3, 2 ch, ~128.00 kbps avg

    MediaInfo
    General
    Complete name               : Boloto.2005.HDRip.ot.Portablius.avi
    Format                      : AVI
    Format/Info                 : Audio Video Interleave
    File size                   : 699 MiB
    Duration                    : 1 h 26 min
    Overall bit rate            : 1 125 kb/s
    Writing application         : VirtualDubMod 1.5.10.3 | www.virtualdub-fr.org || (build 2550/release)
    Writing library             : VirtualDubMod build 2550/release

    Video
    ID                          : 0
    Format                      : MPEG-4 Visual
    Format profile              : Advanced Simple@L5
    Format settings, BVOP       : 1
    Format settings, QPel       : No
    Format settings, GMC        : No warppoints
    Format settings, Matrix     : Custom
    Codec ID                    : XVID
    Codec ID/Hint               : XviD
    Duration                    : 1 h 26 min
    Bit rate                    : 988 kb/s
    Width                       : 688 pixels
    Height                      : 384 pixels
    Display aspect ratio        : 16:9
    Frame rate                  : 23.976 (24000/1001) FPS
    Color space                 : YUV
    Chroma subsampling          : 4:2:0
    Bit depth                   : 8 bits
    Scan type                   : Progressive
    Compression mode            : Lossy
    Bits/(Pixel*Frame)          : 0.156
    Stream size                 : 614 MiB (88%)
    Writing library             : XviD 73

    Audio
    ID                          : 1
    Format                      : MPEG Audio
    Format version              : Version 1
    Format profile              : Layer 3
    Codec ID                    : 55
    Codec ID/Hint               : MP3
    Duration                    : 1 h 26 min
    Bit rate mode               : Constant
    Bit rate                    : 128 kb/s
    Channel(s)                  : 2 channels
    Sampling rate               : 48.0 kHz
    Compression mode            : Lossy
    Stream size                 : 79.5 MiB (11%)
    Alignment                   : Aligned on interleaves
    Interleave, duration        : 42  ms (1.00 video frame)
    Interleave, preload duratio : 504  ms
    Writing library             : LAME3.99r
    Encoding settings           : -m s -V 4 -q 2 -lowpass 17 -b 128

    Свернуть


    Похожие раздачи Искать похожие
    Инструкция по скачиванию
     1  Качаем uTorrent версии 2.0 и выше
     2  После установки, жмем выше под постером на ссылку Скачать [MediaGet] или Скачать .torrent
     3  Открываем скачанный файл через соответствующий клиент: MediaGet или uTorrent
     4  Ждем пока подключатся участники
     5  Качаем
    Комментарии о  Болото / Venom | HDRip 
    Ближайшее в кино
    Вверх