• Игры для PS4
  • Игры для PS3
  • Игры для XBOX360
  • Игры для PC
  • Игры для PS2
  • Игры для PSP
  • Для телефонов
  • Музыка
  • Книги / Журналы
  • Обои
  • Опрос
    Удобен ли сайт в использовании?
      0
    • Очень удобен, все понятно1,1,false,300,full
    • Удобен1,2,false,300,full
    • Средне1,3,false,300,full
    • Неудобен, трудно ориентироваться1,4,false,300,full
    • Совсем неудобен1,5,false,300,full
    Статистика
    Всего онлайн -
    Гостей -
    Пользователей -
    Короли трекера
    
    Благодарности () Закрыть
    Быстрее загружает сайты Экономит интернет—трафик Меняет оформление страницы ВК Блокирует всю рекламу на сайтах Загружает торренты как µTorrent клиент Объеденяет все твои чаты из соц. сетей в один Проигрывает твою музыку не заходя во ВКонтакте
    Новый интернет-браузер
    Orbitum
    Скачать
    и многое другое... Подробности на сайте производителя
    Информация о фильме
    Название: Хронос
    Оригинальное название: ronos
    Год выхода: 1993
    Жанр: ужасы, триллер, драма
    Режиссер: Гильермо Дель Торо
    В ролях: Федерико Луппи, Рон Перлман, Клаудио Брук, Маргарита Исабель, Тамара Шанат, Даниэль Хименес Качо, Марио Иван Мартинес, Хуан Карлос Коломбо, Фарнесио де Берналь, Луис Родригес и др.

    О фильме:
    «Хронос» — это чудесное маленькое устройство, которое, сбежавший из Испании в Мексику гениальный алхимик Умберто Фальконелли, изобрел в 1536 году. Устройство, дарующее бессмертие… Правда, в 1937 году жизнь алхимика все-таки оборвалась в результате трагической случайности. Потому что «Хронос» обещал вечную жизнь при условии, что владелец будет собственной кровью питать его…

    Имущество особняка, где жил алхимик, было продано с молотка. И вот однажды хозяин антикварного магазина старик Хесус Грис расковырял фигурку ангела и, обнаружив внутри странную коробочку, привел в действие ее заводной механизм… Так у «Хроноса» появился новый владелец, но не только ему был известен секрет бессмертия…


    Страна: Мексика
    Продолжительность: 01:32:28
    Перевод: Профессиональный многоголосый закадровый.

    Файл
    Кодек: h.264
    Качество: BDRip-AVC
    Видео: MPEG-4, 1080x608, 23.976 fps ~2604 kbps
    Звук:
    1) E-AC3 2 ch, 48 kHz ~256 kbps - MVO [EA-Cinema]
    2) AC3 2 ch, 48 kHz ~256 kbps - AVO [Визгунов]
    3) E-AC3 2 ch, 48 kHz ~256 kbps - Original
    Субтитры: Русские, английские

    Media Info
    General
    Unique ID                   : 241300672513502561417120070538020594610 (0xB588D1AF30E893AE83B8C57BCB3923B2)
    Complete name               : K:VIDEOХронос (1993).mkv
    Format                      : Matroska
    Format version              : Version 4 / Version 2
    File size                   : 2.19 GiB
    Duration                    : 1 h 32 min
    Overall bit rate            : 3 384 kb/s
    Movie name                  : Cronos (1993) BDRip-AVC от DrVampir
    Encoded date                : UTC 2018-08-08 11:12:25 / UTC 2018-08-07T23:47:53Z
    Writing application         : mkvmerge v24.0.0 ("Beyond The Pale") 64-bit
    Writing library             : libebml v1.3.6 + libmatroska v1.4.9 / Lavf57.7.2
    Cover                       : Yes
    Attachments                 : Cover.jpg

    Video
    ID                          : 1
    Format                      : AVC
    Format/Info                 : Advanced Video Codec
    Format profile              : High@L4.1
    Format settings             : CABAC / 11 Ref Frames
    Format settings, CABAC      : Yes
    Format settings, ReFrames   : 11 frames
    Codec ID                    : V_MPEG4/ISO/AVC
    Duration                    : 1 h 32 min
    Bit rate                    : 2 604 kb/s
    Width                       : 1 080 pixels
    Height                      : 608 pixels
    Display aspect ratio        : 16:9
    Frame rate mode             : Constant
    Frame rate                  : 23.976 (24000/1001) FPS
    Color space                 : YUV
    Chroma subsampling          : 4:2:0
    Bit depth                   : 8 bits
    Scan type                   : Progressive
    Bits/(Pixel*Frame)          : 0.165
    Stream size                 : 1.65 GiB (75%)
    Title                       : MPEG-4, 1080x608, 23.976 fps ~2604 kbps
    Writing library             : x264 core 155 r2901 7d0ff22
    Encoding settings           : cabac=1 / ref=11 / deblock=1:-2:-2 / analyse=0x3:0x133 / me=umh / subme=11 / psy=1 / psy_rd=1.00:0.15 / mixed_ref=1 / me_range=56 / chroma_me=1 / trellis=2 / 8x8dct=1 / cqm=0 / deadzone=21,11 / fast_pskip=0 / chroma_qp_offset=-3 / threads=6 / lookahead_threads=1 / sliced_threads=0 / nr=0 / decimate=1 / interlaced=0 / bluray_compat=0 / constrained_intra=0 / bframes=13 / b_pyramid=2 / b_adapt=2 / b_bias=0 / direct=3 / weightb=1 / open_gop=0 / weightp=2 / keyint=240 / keyint_min=24 / scenecut=40 / intra_refresh=0 / rc_lookahead=80 / rc=2pass / mbtree=0 / bitrate=2604 / ratetol=1.0 / qcomp=0.60 / qpmin=0 / qpmax=69 / qpstep=4 / cplxblur=20.0 / qblur=0.5 / vbv_maxrate=62500 / vbv_bufsize=78125 / nal_hrd=none / filler=0 / ip_ratio=1.40 / pb_ratio=1.30 / aq=1:1.00
    Language                    : Spanish
    Default                     : Yes
    Forced                      : No
    Color range                 : Limited
    Color primaries             : BT.709
    Transfer characteristics    : BT.709
    Matrix coefficients         : BT.709
    Statistics Tags Issue       : mkvmerge v24.0.0 ("Beyond The Pale") 64-bit 2018-08-08 11:12:25 / mkvmerge v24.0.0 ("Beyond The Pale") 64-bit 2018-08-08 11:12:25 / UTC 2018-08-07T23:47:53Z
    FromStats_BitRate           : 2598805
    FromStats_Duration          : 01:32:28.960000000
    FromStats_FrameCount        : 133042
    FromStats_StreamSize        : 1802583663

    Audio #1
    ID                          : 2
    Format                      : E-AC-3
    Format/Info                 : Enhanced Audio Coding 3
    Codec ID                    : A_EAC3
    Duration                    : 1 h 32 min
    Bit rate mode               : Constant
    Bit rate                    : 256 kb/s
    Channel(s)                  : 2 channels
    Channel positions           : Front: L R
    Sampling rate               : 48.0 kHz
    Frame rate                  : 187.500 FPS (256 SPF)
    Compression mode            : Lossy
    Stream size                 : 169 MiB (8%)
    Title                       : E-AC3 2 ch, 48 kHz ~256 kbps - MVO [EA-Cinema]
    Language                    : Russian
    Service kind                : Complete Main
    Default                     : Yes
    Forced                      : No
    Statistics Tags Issue       : mkvmerge v24.0.0 ("Beyond The Pale") 64-bit 2018-08-08 11:12:25 / mkvmerge v24.0.0 ("Beyond The Pale") 64-bit 2018-08-08 11:12:25 / UTC 2018-08-07T23:47:53Z
    FromStats_BitRate           : 256000
    FromStats_Duration          : 01:32:28.960000000
    FromStats_FrameCount        : 173405
    FromStats_StreamSize        : 177566720

    Audio #2
    ID                          : 3
    Format                      : AC-3
    Format/Info                 : Audio Coding 3
    Codec ID                    : A_AC3
    Duration                    : 1 h 32 min
    Bit rate mode               : Constant
    Bit rate                    : 256 kb/s
    Channel(s)                  : 2 channels
    Channel positions           : Front: L R
    Sampling rate               : 48.0 kHz
    Frame rate                  : 31.250 FPS (1536 SPF)
    Bit depth                   : 16 bits
    Compression mode            : Lossy
    Stream size                 : 169 MiB (8%)
    Title                       : AC3 2 ch, 48 kHz ~256 kbps - AVO [Визгунов]
    Language                    : Russian
    Service kind                : Complete Main
    Default                     : No
    Forced                      : No
    Statistics Tags Issue       : mkvmerge v24.0.0 ("Beyond The Pale") 64-bit 2018-08-08 11:12:25 / mkvmerge v24.0.0 ("Beyond The Pale") 64-bit 2018-08-08 11:12:25 / UTC 2018-08-07T23:47:53Z
    FromStats_BitRate           : 256000
    FromStats_Duration          : 01:32:28.896000000
    FromStats_FrameCount        : 173403
    FromStats_StreamSize        : 177564672

    Audio #3
    ID                          : 4
    Format                      : E-AC-3
    Format/Info                 : Enhanced Audio Coding 3
    Codec ID                    : A_EAC3
    Duration                    : 1 h 32 min
    Bit rate mode               : Constant
    Bit rate                    : 256 kb/s
    Channel(s)                  : 2 channels
    Channel positions           : Front: L R
    Sampling rate               : 48.0 kHz
    Frame rate                  : 187.500 FPS (256 SPF)
    Compression mode            : Lossy
    Stream size                 : 169 MiB (8%)
    Title                       : E-AC3 2 ch, 48 kHz ~256 kbps - Original
    Language                    : Spanish
    Service kind                : Complete Main
    Default                     : No
    Forced                      : No
    Statistics Tags Issue       : mkvmerge v24.0.0 ("Beyond The Pale") 64-bit 2018-08-08 11:12:25 / mkvmerge v24.0.0 ("Beyond The Pale") 64-bit 2018-08-08 11:12:25 / UTC 2018-08-07T23:47:53Z
    FromStats_BitRate           : 256000
    FromStats_Duration          : 01:32:28.960000000
    FromStats_FrameCount        : 173405
    FromStats_StreamSize        : 177566720

    Text #1
    ID                          : 5
    Format                      : PGS
    Muxing mode                 : zlib
    Codec ID                    : S_HDMV/PGS
    Codec ID/Info               : Picture based subtitle format used on BDs/HD-DVDs
    Language                    : English
    Default                     : No
    Forced                      : No
    Statistics Tags Issue       : mkvmerge v24.0.0 ("Beyond The Pale") 64-bit 2018-08-08 11:12:25 / mkvmerge v24.0.0 ("Beyond The Pale") 64-bit 2018-08-08 11:12:25 / UTC 2018-08-07T23:47:53Z
    FromStats_BitRate           : 21784
    FromStats_Duration          : 01:26:24.138000000
    FromStats_FrameCount        : 1149
    FromStats_StreamSize        : 14116425

    Text #2
    ID                          : 6
    Format                      : PGS
    Muxing mode                 : zlib
    Codec ID                    : S_HDMV/PGS
    Codec ID/Info               : Picture based subtitle format used on BDs/HD-DVDs
    Language                    : Russian
    Default                     : No
    Forced                      : No
    Statistics Tags Issue       : mkvmerge v24.0.0 ("Beyond The Pale") 64-bit 2018-08-08 11:12:25 / mkvmerge v24.0.0 ("Beyond The Pale") 64-bit 2018-08-08 11:12:25 / UTC 2018-08-07T23:47:53Z
    FromStats_BitRate           : 3344
    FromStats_Duration          : 00:01:27.003000000
    FromStats_FrameCount        : 4
    FromStats_StreamSize        : 36372

    Text #3
    ID                          : 7
    Format                      : PGS
    Muxing mode                 : zlib
    Codec ID                    : S_HDMV/PGS
    Codec ID/Info               : Picture based subtitle format used on BDs/HD-DVDs
    Language                    : Russian
    Default                     : No
    Forced                      : No
    Statistics Tags Issue       : mkvmerge v24.0.0 ("Beyond The Pale") 64-bit 2018-08-08 11:12:25 / mkvmerge v24.0.0 ("Beyond The Pale") 64-bit 2018-08-08 11:12:25 / UTC 2018-08-07T23:47:53Z
    FromStats_BitRate           : 11828
    FromStats_Duration          : 01:25:36.089000000
    FromStats_FrameCount        : 907
    FromStats_StreamSize        : 7593744

    Menu
    00:00:00.000                : :  1. Alchemist
    00:03:50.814                : :  2. Cronos
    00:06:34.311                : :  3. Puzzle
    00:10:30.421                : :  4. Strange Find
    00:14:16.230                : :  5. Not Chocolate
    00:18:37.116                : :  6. Tango
    00:23:07.011                : :  7. Addiction
    00:26:02.102                : :  8. Reflection
    00:29:34.439                : :  9. Ancient Book
    00:34:38.326                : :10. The Toy
    00:38:35.855                : :11. A Fix
    00:41:58.016                : :12. New Craving
    00:45:48.496                : :13. Negotiations
    00:48:56.100                : :14. The Edge
    00:51:46.186                : :15. Plastic Surgery
    00:55:47.678                : :16. Testing
    00:59:57.552                : :17. Scavenging
    01:04:54.140                : :18. De La Guardia
    01:08:13.631                : :19. Instructions
    01:11:38.044                : :20. Eternity
    01:14:30.800                : :21. Long Enough
    01:18:00.301                : :22. Rooftop
    01:21:01.440                : :23. Family Man
    01:26:45.742                : :24. CreditsСвернуть


    Похожие раздачи Искать похожие
    Инструкция по скачиванию
     1  Качаем uTorrent версии 2.0 и выше
     2  После установки, жмем выше под постером на ссылку Скачать [MediaGet] или Скачать .torrent
     3  Открываем скачанный файл через соответствующий клиент: MediaGet или uTorrent
     4  Ждем пока подключатся участники
     5  Качаем
    Комментарии о  Хронос / Cronos | BDRip-AVC 
    Ближайшее в кино
    Вверх