• Игры для PS4
  • Игры для PS3
  • Игры для XBOX360
  • Игры для PC
  • Игры для PS2
  • Игры для PSP
  • Для телефонов
  • Музыка
  • Книги / Журналы
  • Обои
  • Опрос
    Откуда Вы о нас узнали?
      0
    • От знакомых2,1,false,300,full
    • Из социальных сетей2,2,false,300,full
    • Из поисковых систем2,3,false,300,full
    • Другое2,4,false,300,full
    Статистика
    Всего онлайн -
    Гостей -
    Пользователей -
    Короли трекера
    Благодарности () Закрыть
    Информация о фильме
    Название: Секса не будет!!!
    Оригинальное название: Blockers
    Год выхода: 2018
    Жанр: Комедия
    Режиссер: Кэй Кэннон
    В ролях: Лесли Манн, Айк Баринхолц, Джон Сина, Кэтрин Ньютон, Джина Гершон, Джун Рафаэль, Сарайю Рао, Гэри Коул, Грэм Филлипс, Хэннибал Бёресс



    О фильме: У трех подруг грандиозные планы на выпускной. Случайно об этом узнав, их родители решают во что бы то ни стало предотвратить непоправимое.

    Страна: США
    Студия: Point Grey Pictures, DMG Entertainment, Good Universe
    Продолжительность: 01:41:56
    Перевод: Дублированный| Лицензия

    Качество: BDRip 720p
    Видео: MPEG-4 AVC, 1280x536, 5500 Kbit/s, 23.976 fps
    Звук:
    Аудио #01: 48 kHz, DTS, 5.1, 768 Kbps | Лицензия | RUS |[img]http://lostpix.com/img/2016-04/26/ecarul7mj2gcrjkf30af8u4tk.gif[/img]
    Аудио #02: 48 kHz, DTS, 5.1, 1510 Kbps | Оригинал |  ENG |[img]http://lostpix.com/img/2016-09/30/0icucyo5gq0qmwlibabcgmhiw.gif[/img]
    Субтитры: Русские (forced, full), английские

    [img]http://lostpix.com/img/2018-07/02/sh87uhf8tp1cayp8f2fjlqfgo.png[/img][img]http://lostpix.com/img/2018-07/02/bgifiyqguan187gy0gmoesgj2.png[/img][img]http://lostpix.com/img/2018-07/02/s18ye05mecv3s3ntfeqckebrp.png[/img][img]http://lostpix.com/img/2018-07/02/wbxwsq9zdflobojvgucpq7vb8.png[/img][img]http://lostpix.com/img/2018-07/02/fbzmfmn497j8wmc81ema1tu39.png[/img]

    MI
    General
    Unique ID                   : 146326803689690494049724038374817624140 (0x6E15846D1164D01F18EB015293A5704C)
    Complete name               : D:Video111Blockers.2018.Lic.BDRip.720p.ExKinoRay.mkv
    Format                      : Matroska
    Format version              : Version 4 / Version 2
    File size                   : 5.54 GiB
    Duration                    : 1 h 41 min
    Overall bit rate            : 7 780 kb/s
    Movie name                  : Blockers 2018 720p from ExKinoRay
    Encoded date                : UTC 2018-08-08 15:34:29
    Writing application         : mkvmerge v23.0.0 ("The Bride Said No") 64-bit
    Writing library             : libebml v1.3.6 + libmatroska v1.4.9

    Video
    ID                          : 1
    Format                      : AVC
    Format/Info                 : Advanced Video Codec
    Format profile              : High@L4.1
    Format settings             : CABAC / 12 Ref Frames
    Format settings, CABAC      : Yes
    Format settings, ReFrames   : 12 frames
    Codec ID                    : V_MPEG4/ISO/AVC
    Duration                    : 1 h 41 min
    Bit rate                    : 5 500 kb/s
    Width                       : 1 280 pixels
    Height                      : 536 pixels
    Display aspect ratio        : 2.40:1
    Frame rate mode             : Constant
    Frame rate                  : 23.976 (24000/1001) FPS
    Color space                 : YUV
    Chroma subsampling          : 4:2:0
    Bit depth                   : 8 bits
    Scan type                   : Progressive
    Bits/(Pixel*Frame)          : 0.334
    Stream size                 : 3.92 GiB (71%)
    Writing library             : x264 core 148 r2665kMod a01e339
    Encoding settings           : cabac=1 / ref=12 / deblock=1:-3:-3 / analyse=0x3:0x133 / me=umh / subme=11 / psy=1 / fade_compensate=0.00 / psy_rd=1.05:0.00 / mixed_ref=1 / me_range=32 / chroma_me=1 / trellis=2 / 8x8dct=1 / cqm=0 / deadzone=21,11 / fast_pskip=0 / chroma_qp_offset=-2 / threads=17 / lookahead_threads=2 / sliced_threads=0 / nr=0 / decimate=0 / interlaced=0 / bluray_compat=0 / constrained_intra=0 / fgo=0 / bframes=8 / b_pyramid=2 / b_adapt=2 / b_bias=0 / direct=3 / weightb=1 / open_gop=0 / weightp=2 / keyint=240 / keyint_min=24 / scenecut=40 / intra_refresh=0 / rc=2pass / mbtree=0 / bitrate=5500 / ratetol=1.0 / qcomp=0.70 / qpmin=0 / qpmax=69 / qpstep=4 / cplxblur=20.0 / qblur=0.5 / ip_ratio=1.20 / pb_ratio=1.20 / aq=3:0.85
    Language                    : English
    Default                     : Yes
    Forced                      : No

    Audio #1
    ID                          : 2
    Format                      : DTS
    Format/Info                 : Digital Theater Systems
    Codec ID                    : A_DTS
    Duration                    : 1 h 41 min
    Bit rate mode               : Constant
    Bit rate                    : 768 kb/s
    Channel(s)                  : 6 channels
    Channel positions           : Front: L C R, Side: L R, LFE
    Sampling rate               : 48.0 kHz
    Frame rate                  : 93.750 FPS (512 SPF)
    Bit depth                   : 24 bits
    Compression mode            : Lossy
    Stream size                 : 560 MiB (10%)
    Title                       : Dub [License]
    Language                    : Russian
    Default                     : Yes
    Forced                      : Yes

    Audio #2
    ID                          : 3
    Format                      : DTS
    Format/Info                 : Digital Theater Systems
    Codec ID                    : A_DTS
    Duration                    : 1 h 41 min
    Bit rate mode               : Constant
    Bit rate                    : 1 509 kb/s
    Channel(s)                  : 6 channels
    Channel positions           : Front: L C R, Side: L R, LFE
    Sampling rate               : 48.0 kHz
    Frame rate                  : 93.750 FPS (512 SPF)
    Bit depth                   : 24 bits
    Compression mode            : Lossy
    Stream size                 : 1.07 GiB (19%)
    Title                       : Original
    Language                    : English
    Default                     : No
    Forced                      : No

    Text #1
    ID                          : 4
    Format                      : UTF-8
    Codec ID                    : S_TEXT/UTF8
    Codec ID/Info               : UTF-8 Plain Text
    Duration                    : 1 h 40 min
    Bit rate                    : 1 b/s
    Count of elements           : 33
    Stream size                 : 1.26 KiB (0%)
    Title                       : Forced
    Language                    : Russian
    Default                     : Yes
    Forced                      : Yes

    Text #2
    ID                          : 5
    Format                      : UTF-8
    Codec ID                    : S_TEXT/UTF8
    Codec ID/Info               : UTF-8 Plain Text
    Duration                    : 1 h 41 min
    Bit rate                    : 111 b/s
    Count of elements           : 2039
    Stream size                 : 82.6 KiB (0%)
    Title                       : Full
    Language                    : Russian
    Default                     : No
    Forced                      : No

    Text #3
    ID                          : 6
    Format                      : UTF-8
    Codec ID                    : S_TEXT/UTF8
    Codec ID/Info               : UTF-8 Plain Text
    Duration                    : 1 h 41 min
    Bit rate                    : 109 b/s
    Count of elements           : 2626
    Stream size                 : 81.5 KiB (0%)
    Language                    : English
    Default                     : No
    Forced                      : No

    Menu
    00:00:00.000                : en:00:00:00.000
    00:02:50.087                : en:00:02:50.087
    00:10:02.143                : en:00:10:02.143
    00:14:50.139                : en:00:14:50.139
    00:22:11.956                : en:00:22:11.956
    00:26:09.109                : en:00:26:09.109
    00:32:02.963                : en:00:32:02.963
    00:35:18.450                : en:00:35:18.450
    00:40:06.529                : en:00:40:06.529
    00:44:33.546                : en:00:44:33.546
    00:49:58.245                : en:00:49:58.245
    00:55:14.770                : en:00:55:14.770
    00:59:26.521                : en:00:59:26.521
    01:05:34.472                : en:01:05:34.472
    01:10:20.633                : en:01:10:20.633
    01:15:47.001                : en:01:15:47.001
    01:22:48.213                : en:01:22:48.213
    01:26:38.819                : en:01:26:38.819
    01:31:15.970                : en:01:31:15.970
    01:34:08.560                : en:01:34:08.560Свернуть


    [img]http://lostpix.com/img/2017-03/22/pa3kns75lpl0e564ik1il8ow9.gif[/img]
    Похожие раздачи Искать похожие
    Инструкция по скачиванию
     1  Качаем uTorrent версии 2.0 и выше
     2  После установки, жмем выше под постером на ссылку Скачать [MediaGet] или Скачать .torrent
     3  Открываем скачанный файл через соответствующий клиент: MediaGet или uTorrent
     4  Ждем пока подключатся участники
     5  Качаем
    Комментарии о  Секса не будет!!! / Blockers | BDRip 720p 
    Ближайшее в кино
    Вверх