• Игры для PS4
  • Игры для PS3
  • Игры для XBOX360
  • Игры для PC
  • Игры для PS2
  • Игры для PSP
  • Для телефонов
  • Музыка
  • Книги / Журналы
  • Обои
  • Опрос
    Откуда Вы о нас узнали?
      0
    • От знакомых2,1,false,300,full
    • Из социальных сетей2,2,false,300,full
    • Из поисковых систем2,3,false,300,full
    • Другое2,4,false,300,full
    Статистика
    Всего онлайн -
    Гостей -
    Пользователей -
    Короли трекера
    Благодарности () Закрыть
    Секса не будет!!! / Blockers
    «Родители умеют обламывать, как никто другой»

    Год выпуска: 2018
    Страна: США
    Производство: Point Grey Pictures, DMG Entertainment, Good Universe
    Жанр:  Комедия

    Режиссёр: Кэй Кэннон
    В ролях: Лесли Манн, Айк Баринхолц, Джон Сина, Кэтрин Ньютон, Джина Гершон, Джун Рафаэль, Сарайю Рао, Гэри Коул, Грэм Филлипс, Хэннибал Бёресс

    Перевод: Дублированный | [Лицензия], Профессиональный (многоголосый, закадровый) | [HDrezka Studio]
    Субтитры: Русские (форс., полные), Английские (полные, SDH)
    Реклама: Отсутствует

    Описание: Ни для кого не секрет, что выпускной вечер считается школьниками любой страны настоящим переломным моментом и самым подходящим временем для расставания с девственностью. Так что смотреть фильм рекомендуется и подросткам, и их родителям. Эти три девчонки дружили еще с самого детства, поэтому на последний вечер в школе они также решили прийти вместе. А еще у них заранее составленные более грандиозные планы, ведь в загадочную, увлекательную и зажигательную ночь после бала они планируют, наконец-то, стать взрослыми женщинами и заняться сексом в первый раз. Девчонки просто считают, что это будет неплохим окончанием школы, ведь их любимые парни уже давно не против перейти с подругами на новый и более чувственный уровень отношений. Но все эти сладкие грезы рухнут, словно песчаный домик под натиском прилива, когда о них узнают родители подруг. И они тут же подготовятся разрушить все планы дочек, так как уже понимают, насколько сильно первый неудачный секс может повлиять на всю оставшуюся жизнь. Так что этот школьный выпускной обещает стать самым непредсказуемым, ведь с одной стороны на него придут разгоряченные подростки, а с другой – разгневанные родители.



    Качество: BDRip-AVC
    Продолжительность: 01:41:57

    Формат: MKV
    Видео кодек: MPEG-4 AVC
    Аудио кодек: AC3
    Видео: 1024x428 (2.40:1), 23,976 fps, x264 ~1 393 kbps avg, 0.133 bit/pixel
    Аудио #1: 48 kHz, AC3 Dolby Digital, 3/2 (L,C,R,l,r) + LFE ch, ~448.00 kbps avg | RUS (Лицензия)
    Аудио #2: 48 kHz, AC3 Dolby Digital, 2 (L,R) ch, ~192.00 kbps avg | RUS (HDRezka)
    Аудио #3: 48 kHz, AC3 Dolby Digital, 3/2 (L,C,R,l,r) + LFE ch, ~448.00 kbps avg | ENG

    Дата премьеры (РФ): 14 июня 2018, «Люксор»
    Дата премьеры (мир): 25 мая 2018

    MediaInfo

    Общее
    Уникальный идентификатор                 : 120423282186373308533517969844226706539 (0x5A98AE3652DA6110B43D7C7C3A334C6B)
    Полное имя                               : F:OlLanDGroupBlockers.2018.BDRip(AVC).OlLanDGroup.mkv
    Формат                                   : Matroska
    Версия формата                           : Version 4 / Version 2
    Размер файла                             : 1,77 Гбайт
    Продолжительность                        : 1 ч. 41 м.
    Общий поток                              : 2484 Кбит/сек
    Название фильма                          : Blockers.2018    #TorpedoUK#
    Дата кодирования                         : UTC 2018-08-08 15:41:31
    Программа кодирования                    : mkvmerge v25.0.0 ("Prog Noir") 64-bit
    Библиотека кодирования                   : libebml v1.3.6 + libmatroska v1.4.9

    Видео
    Идентификатор                            : 1
    Формат                                   : AVC
    Формат/Информация                        : Advanced Video Codec
    Профиль формата                          : High@L4.1
    Параметр CABAC формата                   : Да
    Параметр ReFrames формата                : 10 кадров
    Идентификатор кодека                     : V_MPEG4/ISO/AVC
    Продолжительность                        : 1 ч. 41 м.
    Битрейт                                  : 1393 Кбит/сек
    Ширина                                   : 1024 пикселя
    Высота                                   : 428 пикселей
    Соотношение сторон                       : 2,40:1
    Режим частоты кадров                     : Постоянный
    Частота кадров                           : 23,976 (24000/1001) кадра/сек
    Цветовое пространство                    : YUV
    Субдискретизация насыщенности            : 4:2:0
    Битовая глубина                          : 8 бит
    Тип развёртки                            : Прогрессивная
    Бит/(Пиксели*Кадры)                      : 0.133
    Размер потока                            : 1016 Мбайт (56%)
    Библиотека кодирования                   : x264 core 146 r2538 121396c
    Настройки программы                      : cabac=1 / ref=10 / deblock=1:-3:-3 / analyse=0x3:0x113 / me=umh / subme=11 / psy=1 / psy_rd=1.00:0.03 / mixed_ref=1 / me_range=48 / chroma_me=1 / trellis=2 / 8x8dct=1 / cqm=0 / deadzone=21,11 / fast_pskip=1 / chroma_qp_offset=-3 / threads=6 / lookahead_threads=1 / sliced_threads=0 / nr=0 / decimate=1 / interlaced=0 / bluray_compat=0 / constrained_intra=0 / bframes=10 / b_pyramid=2 / b_adapt=2 / b_bias=0 / direct=3 / weightb=1 / open_gop=0 / weightp=2 / keyint=240 / keyint_min=23 / scenecut=40 / intra_refresh=0 / rc_lookahead=40 / rc=2pass / mbtree=1 / bitrate=1393 / ratetol=1.0 / qcomp=0.60 / qpmin=0 / qpmax=69 / qpstep=4 / cplxblur=20.0 / qblur=0.5 / vbv_maxrate=50000 / vbv_bufsize=62500 / nal_hrd=none / filler=0 / ip_ratio=1.40 / aq=1:1.00
    Язык                                     : English
    Default                                  : Да
    Forced                                   : Нет

    Аудио #1
    Идентификатор                            : 2
    Формат                                   : AC-3
    Формат/Информация                        : Audio Coding 3
    Расширение режима                        : CM (complete main)
    Параметр Endianness формата              : Big
    Идентификатор кодека                     : A_AC3
    Продолжительность                        : 1 ч. 41 м.
    Вид битрейта                             : Постоянный
    Битрейт                                  : 448 Кбит/сек
    Каналы                                   : 6 каналов
    Расположение каналов                     : Front: L C R, Side: L R, LFE
    Частота                                  : 48,0 КГц
    Частота кадров                           : 31,250 кадров/сек (1536 spf)
    Битовая глубина                          : 16 бит
    Метод сжатия                             : С потерями
    Размер потока                            : 327 Мбайт (18%)
    Заголовок                                : License
    Язык                                     : Russian
    Default                                  : Да
    Forced                                   : Нет

    Аудио #2
    Идентификатор                            : 3
    Формат                                   : AC-3
    Формат/Информация                        : Audio Coding 3
    Расширение режима                        : CM (complete main)
    Параметр Endianness формата              : Big
    Идентификатор кодека                     : A_AC3
    Продолжительность                        : 1 ч. 41 м.
    Вид битрейта                             : Постоянный
    Битрейт                                  : 192 Кбит/сек
    Каналы                                   : 2 канала
    Расположение каналов                     : Front: L R
    Частота                                  : 48,0 КГц
    Частота кадров                           : 31,250 кадров/сек (1536 spf)
    Битовая глубина                          : 16 бит
    Метод сжатия                             : С потерями
    Размер потока                            : 140 Мбайт (8%)
    Заголовок                                : MVO [HDRezka Studio]
    Язык                                     : Russian
    Default                                  : Нет
    Forced                                   : Нет

    Аудио #3
    Идентификатор                            : 4
    Формат                                   : AC-3
    Формат/Информация                        : Audio Coding 3
    Расширение режима                        : CM (complete main)
    Параметр Endianness формата              : Big
    Идентификатор кодека                     : A_AC3
    Продолжительность                        : 1 ч. 41 м.
    Вид битрейта                             : Постоянный
    Битрейт                                  : 448 Кбит/сек
    Каналы                                   : 6 каналов
    Расположение каналов                     : Front: L C R, Side: L R, LFE
    Частота                                  : 48,0 КГц
    Частота кадров                           : 31,250 кадров/сек (1536 spf)
    Битовая глубина                          : 16 бит
    Метод сжатия                             : С потерями
    Размер потока                            : 327 Мбайт (18%)
    Заголовок                                : Original
    Язык                                     : English
    Default                                  : Нет
    Forced                                   : Нет

    Текст #1
    Идентификатор                            : 5
    Формат                                   : UTF-8
    Идентификатор кодека                     : S_TEXT/UTF8
    Идентификатор кодека/Информация          : UTF-8 Plain Text
    Продолжительность                        : 1 ч. 40 м.
    Битрейт                                  : 1 бит/сек
    Count of elements                        : 33
    Размер потока                            : 1,26 Кбайт (0%)
    Заголовок                                : Forced
    Язык                                     : Russian
    Default                                  : Да
    Forced                                   : Нет

    Текст #2
    Идентификатор                            : 6
    Формат                                   : UTF-8
    Идентификатор кодека                     : S_TEXT/UTF8
    Идентификатор кодека/Информация          : UTF-8 Plain Text
    Продолжительность                        : 1 ч. 41 м.
    Битрейт                                  : 113 бит/сек
    Count of elements                        : 2039
    Размер потока                            : 84,0 Кбайт (0%)
    Заголовок                                : Full
    Язык                                     : Russian
    Default                                  : Нет
    Forced                                   : Нет

    Текст #3
    Идентификатор                            : 7
    Формат                                   : UTF-8
    Идентификатор кодека                     : S_TEXT/UTF8
    Идентификатор кодека/Информация          : UTF-8 Plain Text
    Продолжительность                        : 1 ч. 41 м.
    Битрейт                                  : 109 бит/сек
    Count of elements                        : 2626
    Размер потока                            : 81,5 Кбайт (0%)
    Заголовок                                : Full
    Язык                                     : English
    Default                                  : Нет
    Forced                                   : Нет

    Текст #4
    Идентификатор                            : 8
    Формат                                   : UTF-8
    Идентификатор кодека                     : S_TEXT/UTF8
    Идентификатор кодека/Информация          : UTF-8 Plain Text
    Продолжительность                        : 1 ч. 41 м.
    Битрейт                                  : 109 бит/сек
    Count of elements                        : 2626
    Размер потока                            : 81,5 Кбайт (0%)
    Заголовок                                : SDH
    Язык                                     : English
    Default                                  : Нет
    Forced                                   : Нет

    Меню
    00:00:00.000                             : en:00:00:00.000
    00:02:50.087                             : en:00:02:50.087
    00:10:02.143                             : en:00:10:02.143
    00:14:50.139                             : en:00:14:50.139
    00:22:11.956                             : en:00:22:11.956
    00:26:09.109                             : en:00:26:09.109
    00:32:02.963                             : en:00:32:02.963
    00:35:18.450                             : en:00:35:18.450
    00:40:06.529                             : en:00:40:06.529
    00:44:33.546                             : en:00:44:33.546
    00:49:58.245                             : en:00:49:58.245
    00:55:14.770                             : en:00:55:14.770
    00:59:26.521                             : en:00:59:26.521
    01:05:34.472                             : en:01:05:34.472
    01:10:20.633                             : en:01:10:20.633
    01:15:47.001                             : en:01:15:47.001
    01:22:48.213                             : en:01:22:48.213
    01:26:38.819                             : en:01:26:38.819
    01:31:15.970                             : en:01:31:15.970
    01:34:08.560                             : en:01:34:08.560
    Свернуть


    Похожие раздачи Искать похожие
    Инструкция по скачиванию
     1  Качаем uTorrent версии 2.0 и выше
     2  После установки, жмем выше под постером на ссылку Скачать [MediaGet] или Скачать .torrent
     3  Открываем скачанный файл через соответствующий клиент: MediaGet или uTorrent
     4  Ждем пока подключатся участники
     5  Качаем
    Комментарии о  Секса не будет!!! / Blockers | BDRip-AVC 
    Ближайшее в кино
    Вверх