• Игры для PS4
  • Игры для PS3
  • Игры для XBOX360
  • Игры для PC
  • Игры для PS2
  • Игры для PSP
  • Для телефонов
  • Музыка
  • Книги/Журналы
  • Обои
  •  
    Опрос
    Удобен ли сайт в использовании?
      0
    • Очень удобен, все понятно1,1,false,300,full
    • Удобен1,2,false,300,full
    • Средне1,3,false,300,full
    • Неудобен, трудно ориентироваться1,4,false,300,full
    • Совсем неудобен1,5,false,300,full
    Статистика
    Загрузка...
    Секса не будет!!! / Blockers | BDRemux 1080p
    Статус  Проверено
    В закладки
    Модератор: Max

    Секса не будет!!! / Blockers | BDRemux 1080p [Фильмы 2018] скачать торрентом/torrent бесплатно

    Год выхода
    Категории
    Язык
    Закачал
    Max | 08 августа в 19ч 17м 49с
    Раздел
    Отзывов
    0
    Раздают: 22 Качают: 8 Скачали: 684 Размер: 23.48 GB
    Инфо о раздаче | Благодарности |
    0/5
    0
    0 5 0
    Поддержи нас — расскажи друзьям!
    Orbitum
    Новый интернет-браузер Быстрее загружает сайты Экономит интернет—трафик Меняет оформление страницы ВК Блокирует всю рекламу на сайтах Загружает торренты как

    µTorrent

    клиент
    Объеденяет все твои чаты из соц. сетей в один Проигрывает твою музыку не заходя во ВКонтакте
    Скачать и многое другое... Подробности на сайте производителя
    Информация о фильме
    Название: Секса не будет!!!
    Оригинальное название: Blockers
    Год выхода: 2018
    Жанр: Комедия
    Режиссер: Кэй Кэннон
    В ролях: Лесли Манн, Айк Баринхолц, Джон Сина, Кэтрин Ньютон, Джина Гершон, Джун Рафаэль, Сарайю Рао, Гэри Коул, Грэм Филлипс, Хэннибал Бёресс



    О фильме: У трех подруг грандиозные планы на выпускной. Случайно об этом узнав, их родители решают во что бы то ни стало предотвратить непоправимое.

    Страна: США
    Студия: Point Grey Pictures, DMG Entertainment, Good Universe
    Продолжительность: 01:41:56
    Перевод: Дублированный | Лицензия

    Качество: BDRemux 1080p
    Видео: MPEG-4 AVC, 1920x1080, 28.8 Mbit/s, 23.976 fps
    Звук:
    Аудио #01: 48 kHz, DTS, 5., 768 Kbps | Лицензия | RUS |[img]http://lostpix.com/img/2016-04/26/ecarul7mj2gcrjkf30af8u4tk.gif[/img]
    Аудио #02: 48 kHz, DTS-HD MA, 5.1, 3362 Kbps | Оригинал |  ENG |[img]http://lostpix.com/img/2016-09/30/0icucyo5gq0qmwlibabcgmhiw.gif[/img]
    Субтитры: Русские (forced, full), английские

    [img]http://lostpix.com/img/2018-07/02/bzucwzixpv429x158yqj1oa62.png[/img][img]http://lostpix.com/img/2018-07/02/avkvojxd4zt9n9th1s5rn2f5b.png[/img][img]http://lostpix.com/img/2018-07/02/owk2ebvgx2uosar6teupimgqb.png[/img][img]http://lostpix.com/img/2018-07/02/us8evl17d59zbvrv0wr6fvqv5.png[/img][img]http://lostpix.com/img/2018-07/02/yt0rh9whgr8es92cgmdn3qso2.png[/img]

    MI
    General
    Unique ID                   : 101644480397187581229713999765970047342 (0x4C7803CD11CBD6514B86E18074EF516E)
    Complete name               : D:Video111Blockers.2018.Lic.BDREMUX.1080p.ExKinoRay.mkv
    Format                      : Matroska
    Format version              : Version 4 / Version 2
    File size                   : 23.5 GiB
    Duration                    : 1 h 41 min
    Overall bit rate mode       : Variable
    Overall bit rate            : 33.0 Mb/s
    Movie name                  : Blockers 2018 720p from ExKinoRay
    Encoded date                : UTC 2018-08-08 15:49:31
    Writing application         : mkvmerge v23.0.0 ("The Bride Said No") 64-bit
    Writing library             : libebml v1.3.6 + libmatroska v1.4.9

    Video
    ID                          : 1
    Format                      : AVC
    Format/Info                 : Advanced Video Codec
    Format profile              : High@L4.1
    Format settings             : CABAC / 4 Ref Frames
    Format settings, CABAC      : Yes
    Format settings, ReFrames   : 4 frames
    Codec ID                    : V_MPEG4/ISO/AVC
    Duration                    : 1 h 41 min
    Bit rate mode               : Variable
    Bit rate                    : 28.8 Mb/s
    Maximum bit rate            : 35.0 Mb/s
    Width                       : 1 920 pixels
    Height                      : 1 080 pixels
    Display aspect ratio        : 16:9
    Frame rate mode             : Constant
    Frame rate                  : 23.976 (24000/1001) FPS
    Color space                 : YUV
    Chroma subsampling          : 4:2:0
    Bit depth                   : 8 bits
    Scan type                   : Progressive
    Bits/(Pixel*Frame)          : 0.580
    Stream size                 : 20.5 GiB (87%)
    Language                    : English
    Default                     : Yes
    Forced                      : No

    Audio #1
    ID                          : 2
    Format                      : DTS
    Format/Info                 : Digital Theater Systems
    Codec ID                    : A_DTS
    Duration                    : 1 h 41 min
    Bit rate mode               : Constant
    Bit rate                    : 768 kb/s
    Channel(s)                  : 6 channels
    Channel positions           : Front: L C R, Side: L R, LFE
    Sampling rate               : 48.0 kHz
    Frame rate                  : 93.750 FPS (512 SPF)
    Bit depth                   : 24 bits
    Compression mode            : Lossy
    Stream size                 : 560 MiB (2%)
    Title                       : Dub [Лицензия]
    Language                    : Russian
    Default                     : Yes
    Forced                      : Yes

    Audio #2
    ID                          : 3
    Format                      : DTS
    Format/Info                 : Digital Theater Systems
    Format profile              : MA / Core
    Codec ID                    : A_DTS
    Duration                    : 1 h 41 min
    Bit rate mode               : Variable / Constant
    Bit rate                    : 3 362 kb/s / 1 509 kb/s
    Channel(s)                  : 6 channels
    Channel positions           : Front: L C R, Side: L R, LFE
    Sampling rate               : 48.0 kHz
    Frame rate                  : 93.750 FPS (512 SPF)
    Bit depth                   : 24 bits
    Compression mode            : Lossless / Lossy
    Stream size                 : 2.39 GiB (10%)
    Title                       : Original
    Language                    : English
    Default                     : No
    Forced                      : No

    Text #1
    ID                          : 4
    Format                      : UTF-8
    Codec ID                    : S_TEXT/UTF8
    Codec ID/Info               : UTF-8 Plain Text
    Duration                    : 1 h 40 min
    Bit rate                    : 1 b/s
    Count of elements           : 33
    Stream size                 : 1.26 KiB (0%)
    Title                       : Forced
    Language                    : Russian
    Default                     : Yes
    Forced                      : Yes

    Text #2
    ID                          : 5
    Format                      : UTF-8
    Codec ID                    : S_TEXT/UTF8
    Codec ID/Info               : UTF-8 Plain Text
    Duration                    : 1 h 41 min
    Bit rate                    : 111 b/s
    Count of elements           : 2039
    Stream size                 : 82.6 KiB (0%)
    Title                       : Full
    Language                    : Russian
    Default                     : No
    Forced                      : No

    Text #3
    ID                          : 6
    Format                      : UTF-8
    Codec ID                    : S_TEXT/UTF8
    Codec ID/Info               : UTF-8 Plain Text
    Duration                    : 1 h 41 min
    Bit rate                    : 109 b/s
    Count of elements           : 2626
    Stream size                 : 81.5 KiB (0%)
    Language                    : English
    Default                     : No
    Forced                      : No

    Menu
    00:00:00.000                : en:00:00:00.000
    00:02:50.087                : en:00:02:50.087
    00:10:02.143                : en:00:10:02.143
    00:14:50.139                : en:00:14:50.139
    00:22:11.956                : en:00:22:11.956
    00:26:09.109                : en:00:26:09.109
    00:32:02.963                : en:00:32:02.963
    00:35:18.450                : en:00:35:18.450
    00:40:06.529                : en:00:40:06.529
    00:44:33.546                : en:00:44:33.546
    00:49:58.245                : en:00:49:58.245
    00:55:14.770                : en:00:55:14.770
    00:59:26.521                : en:00:59:26.521
    01:05:34.472                : en:01:05:34.472
    01:10:20.633                : en:01:10:20.633
    01:15:47.001                : en:01:15:47.001
    01:22:48.213                : en:01:22:48.213
    01:26:38.819                : en:01:26:38.819
    01:31:15.970                : en:01:31:15.970
    01:34:08.560                : en:01:34:08.560


    [img]http://lostpix.com/img/2017-03/22/pa3kns75lpl0e564ik1il8ow9.gif[/img]
    Еще похожие »

    Как скачать?
    1. Качаем UTorrent версии 2.0 и выше отсюда
    2. После установки, жмем на ссылку Скачать торрент.
    3. Открываем его через utorrent.
    4. Ждем пока подключатся участники.
    5. Качаем.


    Комментарии о Секса не будет!!! / Blockers | BDRemux 1080p
    Добавлять комментарии могут только зарегистрированные пользователи

    Зарегистрироваться или Войти


    Ближайшее в кино
    • Примадонна дата выхода 18 октября 2018Примадонна
      Дата выхода: 18 октября 2018
    • 885317|Ученик чудовища|18 октября 2018|200|300Ученик чудовища
      Дата выхода: 18 октября 2018
    • 472369|Хэллоуин|18 октября 2018|200|300Хэллоуин
      Дата выхода: 18 октября 2018
    • 1005852|Дикая жизнь|18 октября 2018|200|300Дикая жизнь
      Дата выхода: 18 октября 2018
    • 696499|Галвестон|18 октября 2018|200|300Галвестон
      Дата выхода: 18 октября 2018
    • 1111886|Лукас|18 октября 2018|200|300Лукас
      Дата выхода: 18 октября 2018
    • 1045555|Вечная жизнь Александра Христофорова|18 октября 2018|200|300Вечная жизнь Александра Христофорова
      Дата выхода: 18 октября 2018
    • 1112943|Шестой пост|18 октября 2018|200|300Шестой пост
      Дата выхода: 18 октября 2018
    • 1044626|Тайна магазина игрушек|18 октября 2018|200|300Тайна магазина игрушек
      Дата выхода: 18 октября 2018
    • 629086|Лягушонок Риббит|18 октября 2018|200|300Лягушонок Риббит
      Дата выхода: 18 октября 2018
    • 991817|Закат|18 октября 2018|200|300Закат
      Дата выхода: 18 октября 2018
    • 1020860|Безупречная жизнь|18 октября 2018|200|300Безупречная жизнь
      Дата выхода: 18 октября 2018
    • 968603|Зимние братья|18 октября 2018|200|300Зимние братья
      Дата выхода: 18 октября 2018
    • 1008554|Слоны могут играть в футбол|18 октября 2018|200|300Слоны могут играть в футбол
      Дата выхода: 18 октября 2018
    • 939290|Прогулка по Риму|18 октября 2018|200|300Прогулка по Риму
      Дата выхода: 18 октября 2018
    Вверх