• Игры для PS4
  • Игры для PS3
  • Игры для XBOX360
  • Игры для PC
  • Игры для PS2
  • Игры для PSP
  • Для телефонов
  • Музыка
  • Книги / Журналы
  • Обои
  • Опрос
    Удобен ли сайт в использовании?
      0
    • Очень удобен, все понятно1,1,false,300,full
    • Удобен1,2,false,300,full
    • Средне1,3,false,300,full
    • Неудобен, трудно ориентироваться1,4,false,300,full
    • Совсем неудобен1,5,false,300,full
    Статистика
    Всего онлайн -
    Гостей -
    Пользователей -
    Короли трекера
    
    Благодарности () Закрыть
    Быстрее загружает сайты Экономит интернет—трафик Меняет оформление страницы ВК Блокирует всю рекламу на сайтах Загружает торренты как µTorrent клиент Объеденяет все твои чаты из соц. сетей в один Проигрывает твою музыку не заходя во ВКонтакте
    Новый интернет-браузер
    Orbitum
    Скачать
    и многое другое... Подробности на сайте производителя
    Название: Оборотни
    Оригинальное название: Cursed
    Год выхода: 2005
    Жанр: ужасы, триллер, мелодрама, комедия
    Режиссер: Уэс Крэйвен
    В ролях: Кристина Риччи, Джошуа Джексон, Джесси Айзенберг, Джуди Грир, Портия Де Росси, Майя Харрисон, Шеннон Элизабет, Кристина Анапау, Майло Вентимилья

    О фильме: Оставшиеся в живых после нападения таинственного зверя, Элли и Джимми не сразу поняли, что уже стали другими! И только появившиеся сверхъестественные возможности заставили их поверить в это! Но еще более страшным открытием становится то, что в Лос-Анджелесе, оказывается, они такие не одни!


    Страна: США, Германия
    Студия: Dimension Films, Outerbanks Entertainment, Craven-Maddalena Films
    Продолжительность: 01:37:11
    Перевод: Профессиональный (дублированный), авторский (одноголосый, закадровый)

    Кодек: H.264
    Качество: WEB-DLRip 720p
    Видео: AVC, 1280x534 (2.40:1), 23.976 fps, 4 904 Kbps (0.299 bit/pixel)
    Аудио #1: AC-3, 6 ch, 448 kbps (Rus) - Dub Невафильм
    Аудио #2: AC-3, 6 ch, 448 kbps (Rus) - AVO Визгунов Сергей
    Аудио #3: AC-3, 2 ch, 192 kbps (Rus) - AVO Рудой Евгений
    Аудио #4: AC-3, 6 ch, 448 kbps (Eng)
    Субтитры: русские, английские

    Скриншоты
    [screen]http://img11.lostpic.net/2018/08/08/006ef8ec8ee9c4dad768e682c007f5cb.png[/screen][screen]http://img11.lostpic.net/2018/08/08/c3b0d9de1c0b06eaf4cfcc231a6ec932.png[/screen][screen]http://img11.lostpic.net/2018/08/08/c07e4f3eae17540798b78fd4e2a1eb50.png[/screen]Свернуть


    MI
    Полное имя                               : D:ФИЛЬМЫОборотни.2005 (К.Риччи,Д.Айзенберг).k.e.n & MegaPeer.mkv
    Формат                                   : Matroska
    Версия формата                           : Version 2
    Размер файла                             : 4,37 Гбайт
    Продолжительность                        : 1 ч. 37 м.
    Общий поток                              : 6437 Кбит/сек
    Дата кодирования                         : UTC 2018-08-08 05:20:00
    Программа кодирования                    : mkvmerge v5.3.0 ("I could have danced") built on Feb  9 2012 10:38:07
    Библиотека кодирования                   : libebml v1.2.3 + libmatroska v1.3.0
    Обложка                                  : Yes
    Attachments                              : cover .jpg

    Видео
    Идентификатор                            : 1
    Формат                                   : AVC
    Формат/Информация                        : Advanced Video Codec
    Профиль формата                          : High@L4.1
    Параметр CABAC формата                   : Да
    Параметр ReFrames формата                : 12 кадров
    Идентификатор кодека                     : V_MPEG4/ISO/AVC
    Продолжительность                        : 1 ч. 37 м.
    Битрейт                                  : 4904 Кбит/сек
    Ширина                                   : 1280 пикселей
    Высота                                   : 534 пикселя
    Соотношение сторон                       : 2,40:1
    Режим частоты кадров                     : Постоянный
    Частота кадров                           : 23,976 (24000/1001) кадра/сек
    Цветовое пространство                    : YUV
    Субдискретизация насыщенности            : 4:2:0
    Битовая глубина                          : 8 бит
    Тип развёртки                            : Прогрессивная
    Бит/(Пиксели*Кадры)                      : 0.299
    Размер потока                            : 3,24 Гбайт (74%)
    Библиотека кодирования                   : x264 core 146 r2538 121396c
    Настройки программы                      : cabac=1 / ref=12 / deblock=1:-3:-3 / analyse=0x3:0x133 / me=umh / subme=11 / psy=1 / psy_rd=1.00:0.00 / mixed_ref=1 / me_range=32 / chroma_me=1 / trellis=2 / 8x8dct=1 / cqm=0 / deadzone=21,11 / fast_pskip=0 / chroma_qp_offset=-2 / threads=12 / lookahead_threads=2 / sliced_threads=0 / nr=0 / decimate=0 / interlaced=0 / bluray_compat=0 / constrained_intra=0 / bframes=10 / b_pyramid=2 / b_adapt=2 / b_bias=0 / direct=3 / weightb=1 / open_gop=0 / weightp=2 / keyint=240 / keyint_min=23 / scenecut=40 / intra_refresh=0 / rc_lookahead=40 / rc=2pass / mbtree=0 / bitrate=4904 / ratetol=1.0 / qcomp=0.60 / qpmin=0 / qpmax=69 / qpstep=4 / cplxblur=20.0 / qblur=0.5 / vbv_maxrate=50000 / vbv_bufsize=62500 / nal_hrd=none / filler=0 / ip_ratio=1.40 / pb_ratio=1.30 / aq=3:0.90
    Язык                                     : English
    Default                                  : Да
    Forced                                   : Нет

    Аудио #1
    Идентификатор                            : 2
    Формат                                   : AC-3
    Формат/Информация                        : Audio Coding 3
    Расширение режима                        : CM (complete main)
    Параметр Endianness формата              : Big
    Идентификатор кодека                     : A_AC3
    Продолжительность                        : 1 ч. 37 м.
    Вид битрейта                             : Постоянный
    Битрейт                                  : 448 Кбит/сек
    Каналы                                   : 6 каналов
    Расположение каналов                     : Front: L C R, Side: L R, LFE
    Частота                                  : 48,0 КГц
    Частота кадров                           : 31,250 кадров/сек (1536 spf)
    Битовая глубина                          : 16 бит
    Метод сжатия                             : С потерями
    Размер потока                            : 311 Мбайт (7%)
    Заголовок                                : Дублированный (Невафильм)
    Язык                                     : Russian
    Default                                  : Нет
    Forced                                   : Нет

    Аудио #2
    Идентификатор                            : 3
    Формат                                   : AC-3
    Формат/Информация                        : Audio Coding 3
    Расширение режима                        : CM (complete main)
    Параметр Endianness формата              : Big
    Идентификатор кодека                     : A_AC3
    Продолжительность                        : 1 ч. 37 м.
    Вид битрейта                             : Постоянный
    Битрейт                                  : 448 Кбит/сек
    Каналы                                   : 6 каналов
    Расположение каналов                     : Front: L C R, Side: L R, LFE
    Частота                                  : 48,0 КГц
    Частота кадров                           : 31,250 кадров/сек (1536 spf)
    Битовая глубина                          : 16 бит
    Метод сжатия                             : С потерями
    Размер потока                            : 311 Мбайт (7%)
    Заголовок                                : Авторский С.Визгунов
    Язык                                     : Russian
    Default                                  : Нет
    Forced                                   : Нет

    Аудио #3
    Идентификатор                            : 4
    Формат                                   : AC-3
    Формат/Информация                        : Audio Coding 3
    Профиль формата                          : Dolby Digital
    Расширение режима                        : CM (complete main)
    Параметр Endianness формата              : Big
    Идентификатор кодека                     : A_AC3
    Продолжительность                        : 1 ч. 37 м.
    Вид битрейта                             : Постоянный
    Битрейт                                  : 192 Кбит/сек
    Каналы                                   : 2 канала
    Расположение каналов                     : Front: L R
    Частота                                  : 48,0 КГц
    Частота кадров                           : 31,250 кадров/сек (1536 spf)
    Битовая глубина                          : 16 бит
    Метод сжатия                             : С потерями
    Размер потока                            : 133 Мбайт (3%)
    Заголовок                                : Авторский Е.Рудой
    Язык                                     : Russian
    Default                                  : Нет
    Forced                                   : Нет

    Аудио #4
    Идентификатор                            : 5
    Формат                                   : AC-3
    Формат/Информация                        : Audio Coding 3
    Расширение режима                        : CM (complete main)
    Параметр Endianness формата              : Big
    Идентификатор кодека                     : A_AC3
    Продолжительность                        : 1 ч. 37 м.
    Вид битрейта                             : Постоянный
    Битрейт                                  : 448 Кбит/сек
    Каналы                                   : 6 каналов
    Расположение каналов                     : Front: L C R, Side: L R, LFE
    Частота                                  : 48,0 КГц
    Частота кадров                           : 31,250 кадров/сек (1536 spf)
    Битовая глубина                          : 16 бит
    Метод сжатия                             : С потерями
    Размер потока                            : 311 Мбайт (7%)
    Заголовок                                : Оригинал
    Язык                                     : English
    Default                                  : Нет
    Forced                                   : Нет

    Текст #1
    Идентификатор                            : 6
    Формат                                   : UTF-8
    Идентификатор кодека                     : S_TEXT/UTF8
    Идентификатор кодека/Информация          : UTF-8 Plain Text
    Язык                                     : Russian
    Default                                  : Нет
    Forced                                   : Нет

    Текст #2
    Идентификатор                            : 7
    Формат                                   : UTF-8
    Идентификатор кодека                     : S_TEXT/UTF8
    Идентификатор кодека/Информация          : UTF-8 Plain Text
    Заголовок                                : SDH
    Язык                                     : English
    Default                                  : Нет
    Forced                                   : Нет

    Меню
    00:00:00.000                             : en:Beware The Moon
    00:07:35.124                             : en:Car Wreck
    00:14:18.095                             : en:Bad Dream
    00:21:08.685                             : en:Morning After
    00:27:31.489                             : en:Endangered
    00:37:13.781                             : en:Mark Of The Beast
    00:43:10.688                             : en:Wrestling Match
    00:47:01.429                             : en:Bad Day
    00:52:39.357                             : en:Bad Dog
    00:57:36.166                             : en:Hall Of Mirrors
    01:04:54.701                             : en:Showtime
    01:12:04.382                             : en:The Beast
    01:18:52.179                             : en:Still Cursed
    01:22:33.168                             : en:What Doesn"t Kill You
    01:31:42.679                             : en:End CreditsСвернуть
    Похожие раздачи Искать похожие
    Инструкция по скачиванию
     1  Качаем uTorrent версии 2.0 и выше
     2  После установки, жмем выше под постером на ссылку Скачать [MediaGet] или Скачать .torrent
     3  Открываем скачанный файл через соответствующий клиент: MediaGet или uTorrent
     4  Ждем пока подключатся участники
     5  Качаем
    Комментарии о  Оборотни / Cursed | WEB-DLRip 720p 
    Ближайшее в кино
    Вверх