• Игры для PS4
  • Игры для PS3
  • Игры для XBOX360
  • Игры для PC
  • Игры для PS2
  • Игры для PSP
  • Для телефонов
  • Музыка
  • Книги/Журналы
  • Обои
  •  
    Опрос
    Откуда Вы о нас узнали?
      0
    • От знакомых2,1,false,300,full
    • Из социальных сетей2,2,false,300,full
    • Из поисковых систем2,3,false,300,full
    • Другое2,4,false,300,full
    Статистика
    Загрузка...
    Крушение / Wrecked [Сезон 03 | 01 серия из 10] | WEBRip 720p
    Статус  Проверено
    В закладки
    Модератор: Max

    Крушение / Wrecked [Сезон 03 | 01 серия из 10] | WEBRip 720p [Сериалы 2018] скачать торрентом/torrent бесплатно

    Год выхода
    Категории
    Язык
    Закачал
    Аноним | 08 августа в 21ч 58м 14с
    Раздел
    Отзывов
    0
    Раздают: 2 Качают: 0 Скачали: 2 Размер: 508.83 MB
    Инфо о раздаче | Благодарности |
    0/5
    0
    0 5 0
    Поддержи нас — расскажи друзьям!
    Orbitum
    Новый интернет-браузер Быстрее загружает сайты Экономит интернет—трафик Меняет оформление страницы ВК Блокирует всю рекламу на сайтах Загружает торренты как

    µTorrent

    клиент
    Объеденяет все твои чаты из соц. сетей в один Проигрывает твою музыку не заходя во ВКонтакте
    Скачать и многое другое... Подробности на сайте производителя
    Информация о фильме
    Название: Крушение
    Оригинальное название: Wrecked
    Год выхода: 2018
    Жанр: Комедия, пародия
    Режиссер: Джеймс Гриффитс
    В ролях: Джинджер Гонзага, Элли Матсумура, Николас Александр, Азиф Али, Пабло Асар, Джеймс О. Битти, Майк Бенитез, Зак Креггер и др.

    О фильме:
    История о неудачниках, переживших авиакатастрофу и очутившихся на необитаемом острове, где им придётся бороться за выживание вдали от благ цивилизации, социальных сетей и вай-фая.



    Страна: США
    Продолжительность: ~ 22 мин. серия
    Перевод: Любительский (многоголосый закадровый) | OMSKBIRD

    Файл
    Кодек: MPEG-4 AVC
    Качество: WEBRip 720p
    Видео: AVC, 1280x720 (16:9), 23.976 fps, ~ 3000 kbps
    Звук: Аудио rus: AC-3, 48 KHz, 2 ch, 192 kbps | OMSKBIRD  

    Семпл

    Присутствует реклама!

    Скриншоты

    [img]http://i2.imageban.ru/out/2018/08/08/16d653569d8c248dcfbb8ee8403e3e8c.png[/img][img]http://i4.imageban.ru/out/2018/08/08/f3fd91e0a2c5ebadd5449e3d93caa121.png[/img][img]http://i2.imageban.ru/out/2018/08/08/d31076c44e3958761e332e8a84c4bfb6.png[/img][img]http://i4.imageban.ru/out/2018/08/08/a9dad643ba2d5c77744daf7001fd94e4.png[/img]



    Mediainfo
    General
    Unique ID                   : 207527874065798982767996108009017816346 (0x9C206A298197304193AE81B2A7C9B51A)
    Complete name               : H:Мои ДокументыВидеоРАЗДАЧИКРУШЕНИЕWrecked S03 WEBRip 720p (OMSKBIRD)Wrecked S03E01 WEBRip 720p (OMSKBIRD).mkv
    Format                      : Matroska
    Format version              : Version 2
    File size                   : 509 MiB
    Duration                    : 22 min 29 s
    Overall bit rate            : 3 164 kb/s
    Encoded date                : UTC 2018-08-08 18:21:35
    Writing application         : mkvmerge v4.0.0 ("The Stars were mine") сборка от Jun  6 2010 16:18:42
    Writing library             : libebml v1.0.0 + libmatroska v1.0.0

    Video
    ID                          : 1
    Format                      : AVC
    Format/Info                 : Advanced Video Codec
    Format profile              : Main@L4.1
    Format settings, CABAC      : Yes
    Format settings, RefFrames  : 3 frames
    Codec ID                    : V_MPEG4/ISO/AVC
    Duration                    : 22 min 29 s
    Bit rate                    : 2 909 kb/s
    Width                       : 1 280 pixels
    Height                      : 720 pixels
    Display aspect ratio        : 16:9
    Frame rate mode             : Constant
    Frame rate                  : 23.976 (24000/1001) FPS
    Standard                    : NTSC
    Color space                 : YUV
    Chroma subsampling          : 4:2:0
    Bit depth                   : 8 bits
    Scan type                   : Progressive
    Bits/(Pixel*Frame)          : 0.132
    Stream size                 : 468 MiB (92%)
    Language                    : English
    Default                     : Yes
    Forced                      : No
    Color range                 : Limited
    Color primaries             : BT.709
    Transfer characteristics    : BT.709
    Matrix coefficients         : BT.709

    Audio
    ID                          : 2
    Format                      : AC-3
    Format/Info                 : Audio Coding 3
    Format settings, Endianness : Big
    Codec ID                    : A_AC3
    Duration                    : 22 min 29 s
    Bit rate mode               : Constant
    Bit rate                    : 192 kb/s
    Channel(s)                  : 2 channels
    Channel positions           : Front: L R
    Sampling rate               : 48.0 kHz
    Frame rate                  : 31.250 FPS (1536 SPF)
    Bit depth                   : 16 bits
    Compression mode            : Lossy
    Stream size                 : 30.9 MiB (6%)
    Service kind                : Complete Main
    Default                     : Yes
    Forced                      : No

    Еще похожие »

    Как скачать?
    1. Качаем UTorrent версии 2.0 и выше отсюда
    2. После установки, жмем на ссылку Скачать торрент.
    3. Открываем его через utorrent.
    4. Ждем пока подключатся участники.
    5. Качаем.


    Комментарии о Крушение / Wrecked [Сезон 03 | 01 серия из 10] | WEBRip 720p
    Добавлять комментарии могут только зарегистрированные пользователи

    Зарегистрироваться или Войти


    Ближайшее в кино
    • Слендермен дата выхода 16 августа 2018Слендермен
      Дата выхода: 16 августа 2018
    • 1045345|Mamma Mia! 2|16 августа 2018|200|300Mamma Mia! 2
      Дата выхода: 16 августа 2018
    • 989641|Аксель|16 августа 2018|200|300Аксель
      Дата выхода: 16 августа 2018
    • 1009137|Опасное задание|16 августа 2018|200|300Опасное задание
      Дата выхода: 16 августа 2018
    • 901932|Горные огни|16 августа 2018|200|300Горные огни
      Дата выхода: 16 августа 2018
    • 957911|Потерянное отражение: Исповедь содержанки|16 августа 2018|200|300Потерянное отражение: Исповедь содержанки
      Дата выхода: 16 августа 2018
    • 1071376|My Generation|16 августа 2018|200|300My Generation
      Дата выхода: 16 августа 2018
    • 1178005|МУЛЬТ в кино. Выпуск №79. Как в сказке!|18 августа 2018|200|300МУЛЬТ в кино. Выпуск №79. Как в сказке!
      Дата выхода: 18 августа 2018
    • 1007425|Днюха!|23 августа 2018|200|300Днюха!
      Дата выхода: 23 августа 2018
    • 921938|22 мили|23 августа 2018|200|30022 мили
      Дата выхода: 23 августа 2018
    • 934956|Альфа|23 августа 2018|200|300Альфа
      Дата выхода: 23 августа 2018
    • 1023331|Отель «Артемида»|23 августа 2018|200|300Отель «Артемида»
      Дата выхода: 23 августа 2018
    • 1008748|Не волнуйся, он далеко не уйдёт|23 августа 2018|200|300Не волнуйся, он далеко не уйдёт
      Дата выхода: 23 августа 2018
    • 1008240|Последний беспредел|23 августа 2018|200|300Последний беспредел
      Дата выхода: 23 августа 2018
    • 986638|Принцесса и дракон|23 августа 2018|200|300Принцесса и дракон
      Дата выхода: 23 августа 2018
    Вверх