• Игры для PS4
  • Игры для PS3
  • Игры для XBOX360
  • Игры для PC
  • Игры для PS2
  • Игры для PSP
  • Для телефонов
  • Музыка
  • Книги / Журналы
  • Обои
  • Опрос
    Удобен ли сайт в использовании?
      0
    • Очень удобен, все понятно1,1,false,300,full
    • Удобен1,2,false,300,full
    • Средне1,3,false,300,full
    • Неудобен, трудно ориентироваться1,4,false,300,full
    • Совсем неудобен1,5,false,300,full
    Статистика
    Всего онлайн -
    Гостей -
    Пользователей -
    Короли трекера
    Благодарности () Закрыть
    Информация о фильме
    Название: Крушение
    Оригинальное название: Wrecked
    Год выхода: 2017
    Жанр: Комедия, пародия
    Режиссер: Джеймс Гриффитс
    В ролях: Джинджер Гонзага, Элли Матсумура, Николас Александр, Азиф Али, Пабло Асар, Джеймс О. Битти, Майк Бенитез, Зак Креггер и др.

    О фильме:
    История о неудачниках, переживших авиакатастрофу и очутившихся на необитаемом острове, где им придётся бороться за выживание вдали от благ цивилизации, социальных сетей и вай-фая.



    Страна: США
    Продолжительность: ~ 22 мин. серия
    Перевод: Любительский (многоголосый закадровый) | OMSKBIRD

    Файл
    Кодек: MPEG-4 AVC
    Качество: HDTVRip 720p
    Видео: AVC, 1280x720 (16:9), 25.000 fps, ~ 3000 kbps
    Звук: Аудио rus: AC-3, 48 KHz, 2 ch, 192 kbps | OMSKBIRD records

    Семпл

    Присутствует реклама!

    Скриншоты

    [screen]http://i2.imageban.ru/out/2017/06/22/00eb5cf5e4cbda339b25087dbcefae2b.png[/screen][screen]http://i6.imageban.ru/out/2017/06/22/bdcda434f9f564b2154bfe086d1e6b2c.png[/screen][screen]http://i1.imageban.ru/out/2017/06/22/757704c92339071f6f58f3578404ea4b.png[/screen][screen]http://i4.imageban.ru/out/2017/06/22/66ed326ba1d04fef763ec6925b393e6c.png[/screen]

    Свернуть


    Mediainfo
    General
    Unique ID                                : 212750991612979365905097157057512695072 (0xA00E59BD49A85343A75580C07A1B6520)
    Complete name                            : F:Мои ДокументыВидеоРАЗДАЧИКрушениеWrecked S02 HDTVrip 720p (OMSKBIRD)Wrecked S02E01 HDTVrip 720p (OMSKBIRD).mkv
    Format                                   : Matroska
    Format version                           : Version 2
    File size                                : 514 MiB
    Duration                                 : 22mn 41s
    Overall bit rate                         : 3 166 Kbps
    Encoded date                             : UTC 2017-06-22 10:53:17
    Writing application                      : mkvmerge v4.0.0 ("The Stars were mine") сборка от Jun  6 2010 16:18:42
    Writing library                          : libebml v1.0.0 + libmatroska v1.0.0

    Video
    ID                                       : 1
    Format                                   : AVC
    Format/Info                              : Advanced Video Codec
    Format profile                           : Main@L3.2
    Format settings, CABAC                   : Yes
    Format settings, ReFrames                : 3 frames
    Codec ID                                 : V_MPEG4/ISO/AVC
    Duration                                 : 22mn 41s
    Bit rate                                 : 2 911 Kbps
    Width                                    : 1 280 pixels
    Height                                   : 720 pixels
    Display aspect ratio                     : 16:9
    Frame rate                               : 25.000 fps
    Standard                                 : PAL
    Color space                              : YUV
    Chroma subsampling                       : 4:2:0
    Bit depth                                : 8 bits
    Scan type                                : Progressive
    Bits/(Pixel*Frame)                       : 0.126
    Stream size                              : 473 MiB (92%)
    Language                                 : English
    Default                                  : Yes
    Forced                                   : No
    Color primaries                          : BT.709-5, BT.1361, IEC 61966-2-4, SMPTE RP177
    Transfer characteristics                 : BT.709-5, BT.1361
    Matrix coefficients                      : BT.709-5, BT.1361, IEC 61966-2-4 709, SMPTE RP177

    Audio
    ID                                       : 2
    Format                                   : AC-3
    Format/Info                              : Audio Coding 3
    Mode extension                           : CM (complete main)
    Format settings, Endianness              : Big
    Codec ID                                 : A_AC3
    Duration                                 : 22mn 41s
    Bit rate mode                            : Constant
    Bit rate                                 : 192 Kbps
    Channel(s)                               : 2 channels
    Channel positions                        : Front: L R
    Sampling rate                            : 48.0 KHz
    Bit depth                                : 16 bits
    Compression mode                         : Lossy
    Stream size                              : 31.2 MiB (6%)
    Default                                  : Yes
    Forced                                   : No

    Свернуть


    Релиз
    Перевод • Олег Осокин
    Роли озвучивали • Павел Ярощик, Дмитрий Виноградов, Эльвира Адамова
    Звукорежиссер • Павел Квентов
    Постер • Ксения Просветова
    Релиз подготовил • Gater
    Свернуть
    Похожие раздачи Искать похожие
    Инструкция по скачиванию
     1  Качаем uTorrent версии 2.0 и выше
     2  После установки, жмем выше под постером на ссылку Скачать [MediaGet] или Скачать .torrent
     3  Открываем скачанный файл через соответствующий клиент: MediaGet или uTorrent
     4  Ждем пока подключатся участники
     5  Качаем
    Комментарии о  Крушение / Wrecked [Сезон 02] | HDTVRip 720p 
    Ближайшее в кино
    Вверх