• Игры для PS4
  • Игры для PS3
  • Игры для XBOX360
  • Игры для PC
  • Игры для PS2
  • Игры для PSP
  • Для телефонов
  • Музыка
  • Книги / Журналы
  • Обои
  • Опрос
    Откуда Вы о нас узнали?
      0
    • От знакомых2,1,false,300,full
    • Из социальных сетей2,2,false,300,full
    • Из поисковых систем2,3,false,300,full
    • Другое2,4,false,300,full
    Статистика
    Всего онлайн -
    Гостей -
    Пользователей -
    Короли трекера
    Благодарности () Закрыть
    Информация о фильме
    Название: Крушение
    Оригинальное название: Wrecked
    Год выхода: 2017
    Жанр: Комедия, пародия
    Режиссер: Джеймс Гриффитс
    В ролях: Джинджер Гонзага, Элли Матсумура, Николас Александр, Азиф Али, Пабло Асар, Джеймс О. Битти, Майк Бенитез, Зак Креггер и др.

    О фильме:
    История о неудачниках, переживших авиакатастрофу и очутившихся на необитаемом острове, где им придётся бороться за выживание вдали от благ цивилизации, социальных сетей и вай-фая.



    Страна: США
    Продолжительность: ~ 22 мин. серия
    Перевод: Любительский (многоголосый закадровый) | OMSKBIRD

    Файл
    Кодек: Xvid
    Качество: HDTVRip
    Видео: AVI, 720x400 (16:9), 25.000 fps, ~ 1800 kbps
    Звук: Аудио rus: AC-3, 48 KHz, 2 ch, 192 kbps | OMSKBIRD records

    Семпл

    Присутствует реклама!

    Скриншоты

    [screen]http://i6.imageban.ru/out/2017/06/22/4a66fe1790254ee1b890b28367487fcb.png[/screen][screen]http://i3.imageban.ru/out/2017/06/22/7cddebe0aac4ebc4b50fd974a3e380e6.png[/screen][screen]http://i5.imageban.ru/out/2017/06/22/4a378c18ef522e8300a5ee6730db7396.png[/screen][screen]http://i4.imageban.ru/out/2017/06/22/baa2b95fca39d57ed65c8bb967289909.png[/screen]

    Свернуть


    Mediainfo
    General
    Complete name                            : F:Мои ДокументыВидеоРАЗДАЧИКрушениеWrecked S02 HDTVrip (OMSKBIRD)Wrecked S02E01 HDTVrip (OMSKBIRD).avi
    Format                                   : AVI
    Format/Info                              : Audio Video Interleave
    File size                                : 324 MiB
    Duration                                 : 22mn 41s
    Overall bit rate                         : 1 998 Kbps
    Writing application                      : VirtualDubMod 1.5.10.3 | www.virtualdub-fr.org || (build 2550/release)
    Writing library                          : VirtualDubMod build 2550/release

    Video
    ID                                       : 0
    Format                                   : MPEG-4 Visual
    Format profile                           : Advanced Simple@L5
    Format settings, BVOP                    : 2
    Format settings, QPel                    : No
    Format settings, GMC                     : No warppoints
    Format settings, Matrix                  : Default (H.263)
    Codec ID                                 : XVID
    Codec ID/Hint                            : XviD
    Duration                                 : 22mn 41s
    Bit rate                                 : 1 796 Kbps
    Width                                    : 720 pixels
    Height                                   : 400 pixels
    Display aspect ratio                     : 16:9
    Frame rate                               : 25.000 fps
    Color space                              : YUV
    Chroma subsampling                       : 4:2:0
    Bit depth                                : 8 bits
    Scan type                                : Progressive
    Compression mode                         : Lossy
    Bits/(Pixel*Frame)                       : 0.249
    Stream size                              : 292 MiB (90%)
    Writing library                          : XviD 1.2.1 (UTC 2008-12-04)

    Audio
    ID                                       : 1
    Format                                   : AC-3
    Format/Info                              : Audio Coding 3
    Mode extension                           : CM (complete main)
    Format settings, Endianness              : Big
    Codec ID                                 : 2000
    Duration                                 : 22mn 41s
    Bit rate mode                            : Constant
    Bit rate                                 : 192 Kbps
    Channel(s)                               : 2 channels
    Channel positions                        : Front: L R
    Sampling rate                            : 48.0 KHz
    Bit depth                                : 16 bits
    Compression mode                         : Lossy
    Stream size                              : 31.2 MiB (10%)
    Alignment                                : Split accross interleaves
    Interleave, duration                     : 40 ms (1.00 video frame)
    Interleave, preload duration             : 500 ms

    Свернуть


    Релиз
    Перевод • Олег Осокин
    Роли озвучивали • Павел Ярощик, Дмитрий Виноградов, Эльвира Адамова
    Звукорежиссер • Павел Квентов
    Постер • Ксения Просветова
    Релиз подготовил • Gater
    Свернуть
    Похожие раздачи Искать похожие
    Инструкция по скачиванию
     1  Качаем uTorrent версии 2.0 и выше
     2  После установки, жмем выше под постером на ссылку Скачать [MediaGet] или Скачать .torrent
     3  Открываем скачанный файл через соответствующий клиент: MediaGet или uTorrent
     4  Ждем пока подключатся участники
     5  Качаем
    Комментарии о  Крушение / Wrecked [Сезон 02] | HDTVRip 
    Ближайшее в кино
    Вверх