• Игры для PS4
  • Игры для PS3
  • Игры для XBOX360
  • Игры для PC
  • Игры для PS2
  • Игры для PSP
  • Для телефонов
  • Музыка
  • Книги/Журналы
  • Обои
  •  
    Опрос
    Откуда Вы о нас узнали?
      0
    • От знакомых2,1,false,300,full
    • Из социальных сетей2,2,false,300,full
    • Из поисковых систем2,3,false,300,full
    • Другое2,4,false,300,full
    Статистика
    Загрузка...
    Крушение / Wrecked [Сезон 02] | HDTVRip
    Статус  Проверено
    В закладки
    Модератор: Max

    Крушение / Wrecked [Сезон 02] | HDTVRip [Сериалы 2017] скачать торрентом/torrent бесплатно

    Год выхода
    Категории
    Язык
    Закачал
    Max | 09 августа в 00ч 52м 14с
    Раздел
    Отзывов
    0
    Раздают: 2 Качают: 0 Скачали: 3 Размер: 3.03 GB
    Инфо о раздаче | Благодарности |
    0/5
    0
    0 5 0
    Поддержи нас — расскажи друзьям!
    Orbitum
    Новый интернет-браузер Быстрее загружает сайты Экономит интернет—трафик Меняет оформление страницы ВК Блокирует всю рекламу на сайтах Загружает торренты как

    µTorrent

    клиент
    Объеденяет все твои чаты из соц. сетей в один Проигрывает твою музыку не заходя во ВКонтакте
    Скачать и многое другое... Подробности на сайте производителя
    Информация о фильме
    Название: Крушение
    Оригинальное название: Wrecked
    Год выхода: 2017
    Жанр: Комедия, пародия
    Режиссер: Джеймс Гриффитс
    В ролях: Джинджер Гонзага, Элли Матсумура, Николас Александр, Азиф Али, Пабло Асар, Джеймс О. Битти, Майк Бенитез, Зак Креггер и др.

    О фильме:
    История о неудачниках, переживших авиакатастрофу и очутившихся на необитаемом острове, где им придётся бороться за выживание вдали от благ цивилизации, социальных сетей и вай-фая.



    Страна: США
    Продолжительность: ~ 22 мин. серия
    Перевод: Любительский (многоголосый закадровый) | OMSKBIRD

    Файл
    Кодек: Xvid
    Качество: HDTVRip
    Видео: AVI, 720x400 (16:9), 25.000 fps, ~ 1800 kbps
    Звук: Аудио rus: AC-3, 48 KHz, 2 ch, 192 kbps | OMSKBIRD records

    Семпл

    Присутствует реклама!

    Скриншоты

    [img]http://i6.imageban.ru/out/2017/06/22/4a66fe1790254ee1b890b28367487fcb.png[/img][img]http://i3.imageban.ru/out/2017/06/22/7cddebe0aac4ebc4b50fd974a3e380e6.png[/img][img]http://i5.imageban.ru/out/2017/06/22/4a378c18ef522e8300a5ee6730db7396.png[/img][img]http://i4.imageban.ru/out/2017/06/22/baa2b95fca39d57ed65c8bb967289909.png[/img]



    Mediainfo
    General
    Complete name                            : F:Мои ДокументыВидеоРАЗДАЧИКрушениеWrecked S02 HDTVrip (OMSKBIRD)Wrecked S02E01 HDTVrip (OMSKBIRD).avi
    Format                                   : AVI
    Format/Info                              : Audio Video Interleave
    File size                                : 324 MiB
    Duration                                 : 22mn 41s
    Overall bit rate                         : 1 998 Kbps
    Writing application                      : VirtualDubMod 1.5.10.3 | www.virtualdub-fr.org || (build 2550/release)
    Writing library                          : VirtualDubMod build 2550/release

    Video
    ID                                       : 0
    Format                                   : MPEG-4 Visual
    Format profile                           : Advanced Simple@L5
    Format settings, BVOP                    : 2
    Format settings, QPel                    : No
    Format settings, GMC                     : No warppoints
    Format settings, Matrix                  : Default (H.263)
    Codec ID                                 : XVID
    Codec ID/Hint                            : XviD
    Duration                                 : 22mn 41s
    Bit rate                                 : 1 796 Kbps
    Width                                    : 720 pixels
    Height                                   : 400 pixels
    Display aspect ratio                     : 16:9
    Frame rate                               : 25.000 fps
    Color space                              : YUV
    Chroma subsampling                       : 4:2:0
    Bit depth                                : 8 bits
    Scan type                                : Progressive
    Compression mode                         : Lossy
    Bits/(Pixel*Frame)                       : 0.249
    Stream size                              : 292 MiB (90%)
    Writing library                          : XviD 1.2.1 (UTC 2008-12-04)

    Audio
    ID                                       : 1
    Format                                   : AC-3
    Format/Info                              : Audio Coding 3
    Mode extension                           : CM (complete main)
    Format settings, Endianness              : Big
    Codec ID                                 : 2000
    Duration                                 : 22mn 41s
    Bit rate mode                            : Constant
    Bit rate                                 : 192 Kbps
    Channel(s)                               : 2 channels
    Channel positions                        : Front: L R
    Sampling rate                            : 48.0 KHz
    Bit depth                                : 16 bits
    Compression mode                         : Lossy
    Stream size                              : 31.2 MiB (10%)
    Alignment                                : Split accross interleaves
    Interleave, duration                     : 40 ms (1.00 video frame)
    Interleave, preload duration             : 500 ms



    Релиз
    Перевод • Олег Осокин
    Роли озвучивали • Павел Ярощик, Дмитрий Виноградов, Эльвира Адамова
    Звукорежиссер • Павел Квентов
    Постер • Ксения Просветова
    Релиз подготовил • Gater
    Еще похожие »

    Как скачать?
    1. Качаем UTorrent версии 2.0 и выше отсюда
    2. После установки, жмем на ссылку Скачать торрент.
    3. Открываем его через utorrent.
    4. Ждем пока подключатся участники.
    5. Качаем.


    Комментарии о Крушение / Wrecked [Сезон 02] | HDTVRip
    Добавлять комментарии могут только зарегистрированные пользователи

    Зарегистрироваться или Войти


    Ближайшее в кино
    • МУЛЬТ в кино. Выпуск №79. Как в сказке! дата выхода 18 августа 2018МУЛЬТ в кино. Выпуск №79. Как в сказке!
      Дата выхода: 18 августа 2018
    • 1007425|Днюха!|23 августа 2018|200|300Днюха!
      Дата выхода: 23 августа 2018
    • 921938|22 мили|23 августа 2018|200|30022 мили
      Дата выхода: 23 августа 2018
    • 934956|Альфа|23 августа 2018|200|300Альфа
      Дата выхода: 23 августа 2018
    • 1023331|Отель «Артемида»|23 августа 2018|200|300Отель «Артемида»
      Дата выхода: 23 августа 2018
    • 1008748|Не волнуйся, он далеко не уйдёт|23 августа 2018|200|300Не волнуйся, он далеко не уйдёт
      Дата выхода: 23 августа 2018
    • 1008240|Последний беспредел|23 августа 2018|200|300Последний беспредел
      Дата выхода: 23 августа 2018
    • 789159|Шоу Мистико|23 августа 2018|200|300Шоу Мистико
      Дата выхода: 23 августа 2018
    • 986638|Принцесса и дракон|23 августа 2018|200|300Принцесса и дракон
      Дата выхода: 23 августа 2018
    • 675470|Голубая игуана|23 августа 2018|200|300Голубая игуана
      Дата выхода: 23 августа 2018
    • 1108921|Вилли и крутые тачки|23 августа 2018|200|300Вилли и крутые тачки
      Дата выхода: 23 августа 2018
    • 380|2001 год: Космическая одиссея|30 августа 2018|200|3002001 год: Космическая одиссея
      Дата выхода: 30 августа 2018
    • 1048294|Как женить холостяка|30 августа 2018|200|300Как женить холостяка
      Дата выхода: 30 августа 2018
    • 1114917|Гоголь. Страшная месть|30 августа 2018|200|300Гоголь. Страшная месть
      Дата выхода: 30 августа 2018
    • 939770|Выжившие|30 августа 2018|200|300Выжившие
      Дата выхода: 30 августа 2018
    Вверх