• Игры для PS4
  • Игры для PS3
  • Игры для XBOX360
  • Игры для PC
  • Игры для PS2
  • Игры для PSP
  • Для телефонов
  • Музыка
  • Книги / Журналы
  • Обои
  • Опрос
    Удобен ли сайт в использовании?
      0
    • Очень удобен, все понятно1,1,false,300,full
    • Удобен1,2,false,300,full
    • Средне1,3,false,300,full
    • Неудобен, трудно ориентироваться1,4,false,300,full
    • Совсем неудобен1,5,false,300,full
    Статистика
    Всего онлайн -
    Гостей -
    Пользователей -
    Короли трекера
    Благодарности () Закрыть
    Информация о фильме
    Название: Логово Монстра
    Оригинальное название: Bad Samaritan
    Год выхода: 2018
    Жанр: Ужасы, триллер
    Режиссер: Дин Девлин
    В ролях: Дэвид Теннант, Керри Кондон, Роберт Шиэн, Жаклин Байерс, Лиза Бреннер, Ханна Бэйрфут, Карлито Оливеро, Роб Нэгл, Дэна Милликэн, Тони Дуп



    О фильме: Двое парней, работая парковщиками у элитного ресторана, успешно обчищают дома богатых посетителей, пока те наслаждаются изысканной кухней. Но однажды, вломившись в чужой особняк, кроме роскошной добычи они обнаруживают истерзанную пленницу. Пытаясь спасти девушку, они сами все глубже попадают в западню жестокого монстра.

    Страна: США
    Студия: Electric Entertainment
    Продолжительность: 01:50:10
    Перевод: Дублированный | iTunes

    Качество: BDRip 1080p
    Видео: MPEG-4 AVC, 1920x806, 8664 Kbit/s, 23.976 fps
    Звук:
    Аудио #01: 48 kHz, AC3, 5.1, 384 Kbps | iTunes | RUS |[img]http://lostpix.com/img/2016-04/26/ecarul7mj2gcrjkf30af8u4tk.gif[/img]
    Аудио #02: 48 kHz, AC3, 5.1, 640 Kbps | Оригинал |  ENG |[img]http://lostpix.com/img/2016-09/30/0icucyo5gq0qmwlibabcgmhiw.gif[/img]
    Субтитры: Английские

    [img]http://img11.lostpic.net/2018/08/09/7017f7dd9f69ff8c6ff4fc5de172b9b8.png[/img][img]http://img11.lostpic.net/2018/08/09/9555411f112978bf593301ccee73f000.png[/img][img]http://img11.lostpic.net/2018/08/09/968ecafe1c9cdd3a8c7dd912e0fbd028.png[/img][img]http://img11.lostpic.net/2018/08/09/c9035b62a591b6fbd7b2d1cd243e8062.png[/img][img]http://img11.lostpic.net/2018/08/09/70d560861b9662502e1518cced3d22e7.png[/img]

    MI
    General
    Unique ID                   : 198419551674273045469358383816494201674 (0x954637325B664E438736C3C9B8B6BB4A)
    Complete name               : D:Video111Bad.Samaritan.2018.BDRip.1080p.ExKinoRay.mkv
    Format                      : Matroska
    Format version              : Version 4 / Version 2
    File size                   : 7.46 GiB
    Duration                    : 1 h 50 min
    Overall bit rate            : 9 689 kb/s
    Movie name                  : Bad Samaritan 2018 from ExKinoRay
    Encoded date                : UTC 2018-08-08 21:46:59
    Writing application         : mkvmerge v7.3.0 ("Nouages") 64bit built on Oct 22 2014 18:53:34
    Writing library             : libebml v1.3.0 + libmatroska v1.4.1

    Video
    ID                          : 1
    Format                      : AVC
    Format/Info                 : Advanced Video Codec
    Format profile              : High@L4.1
    Format settings             : CABAC / 5 Ref Frames
    Format settings, CABAC      : Yes
    Format settings, ReFrames   : 5 frames
    Codec ID                    : V_MPEG4/ISO/AVC
    Duration                    : 1 h 50 min
    Bit rate                    : 8 664 kb/s
    Width                       : 1 920 pixels
    Height                      : 806 pixels
    Display aspect ratio        : 2.40:1
    Frame rate mode             : Constant
    Frame rate                  : 23.976 (24000/1001) FPS
    Color space                 : YUV
    Chroma subsampling          : 4:2:0
    Bit depth                   : 8 bits
    Scan type                   : Progressive
    Bits/(Pixel*Frame)          : 0.234
    Stream size                 : 6.67 GiB (89%)
    Writing library             : x264 core 148 r2705 3f5ed56
    Encoding settings           : cabac=1 / ref=5 / deblock=1:-2:-2 / analyse=0x3:0x133 / me=umh / subme=11 / psy=1 / psy_rd=1.20:0.05 / mixed_ref=1 / me_range=48 / chroma_me=1 / trellis=2 / 8x8dct=1 / cqm=0 / deadzone=21,11 / fast_pskip=0 / chroma_qp_offset=-3 / threads=12 / lookahead_threads=2 / sliced_threads=0 / nr=0 / decimate=0 / interlaced=0 / bluray_compat=0 / constrained_intra=0 / bframes=8 / b_pyramid=2 / b_adapt=2 / b_bias=0 / direct=3 / weightb=1 / open_gop=0 / weightp=2 / keyint=240 / keyint_min=23 / scenecut=40 / intra_refresh=0 / rc_lookahead=50 / rc=2pass / mbtree=0 / bitrate=8664 / ratetol=1.0 / qcomp=0.60 / qpmin=0 / qpmax=51 / qpstep=4 / cplxblur=20.0 / qblur=0.5 / vbv_maxrate=50000 / vbv_bufsize=62500 / nal_hrd=none / filler=0 / ip_ratio=1.40 / pb_ratio=1.30 / aq=3:0.80
    Language                    : English
    Default                     : Yes
    Forced                      : No

    Audio #1
    ID                          : 2
    Format                      : AC-3
    Format/Info                 : Audio Coding 3
    Commercial name             : Dolby Digital
    Codec ID                    : A_AC3
    Duration                    : 1 h 50 min
    Bit rate mode               : Constant
    Bit rate                    : 384 kb/s
    Channel(s)                  : 6 channels
    Channel positions           : Front: L C R, Side: L R, LFE
    Sampling rate               : 48.0 kHz
    Frame rate                  : 31.250 FPS (1536 SPF)
    Bit depth                   : 16 bits
    Compression mode            : Lossy
    Stream size                 : 302 MiB (4%)
    Title                       : iTunes
    Language                    : Russian
    Service kind                : Complete Main
    Default                     : Yes
    Forced                      : Yes

    Audio #2
    ID                          : 3
    Format                      : AC-3
    Format/Info                 : Audio Coding 3
    Commercial name             : Dolby Digital
    Codec ID                    : A_AC3
    Duration                    : 1 h 50 min
    Bit rate mode               : Constant
    Bit rate                    : 640 kb/s
    Channel(s)                  : 6 channels
    Channel positions           : Front: L C R, Side: L R, LFE
    Sampling rate               : 48.0 kHz
    Frame rate                  : 31.250 FPS (1536 SPF)
    Bit depth                   : 16 bits
    Compression mode            : Lossy
    Stream size                 : 504 MiB (7%)
    Title                       : Original
    Language                    : English
    Service kind                : Complete Main
    Default                     : No
    Forced                      : No

    Text
    ID                          : 4
    Format                      : UTF-8
    Codec ID                    : S_TEXT/UTF8
    Codec ID/Info               : UTF-8 Plain Text
    Duration                    : 1 h 45 min
    Bit rate                    : 49 b/s
    Count of elements           : 1180
    Stream size                 : 38.0 KiB (0%)
    Language                    : English
    Default                     : No
    Forced                      : No

    Menu
    00:00:00.000                : en:00:00:00.000
    00:06:21.047                : en:00:06:21.047
    00:12:34.921                : en:00:12:34.921
    00:20:14.171                : en:00:20:14.171
    00:31:01.485                : en:00:31:01.485
    00:39:04.133                : en:00:39:04.133
    00:44:44.599                : en:00:44:44.599
    00:48:39.917                : en:00:48:39.917
    00:56:36.476                : en:00:56:36.476
    01:02:38.880                : en:01:02:38.880
    01:10:56.627                : en:01:10:56.627
    01:17:26.100                : en:01:17:26.100
    01:23:51.818                : en:01:23:51.818
    01:27:36.418                : en:01:27:36.418
    01:33:58.633                : en:01:33:58.633
    01:41:45.099                : en:01:41:45.099Свернуть


    [img]http://lostpix.com/img/2017-03/22/pa3kns75lpl0e564ik1il8ow9.gif[/img]
    Похожие раздачи Искать похожие
    Инструкция по скачиванию
     1  Качаем uTorrent версии 2.0 и выше
     2  После установки, жмем выше под постером на ссылку Скачать [MediaGet] или Скачать .torrent
     3  Открываем скачанный файл через соответствующий клиент: MediaGet или uTorrent
     4  Ждем пока подключатся участники
     5  Качаем
    Комментарии о  Логово Монстра / Bad Samaritan | BDRip 1080p 
    Ближайшее в кино
    Вверх