• Игры для PS4
  • Игры для PS3
  • Игры для XBOX360
  • Игры для PC
  • Игры для PS2
  • Игры для PSP
  • Для телефонов
  • Музыка
  • Книги / Журналы
  • Обои
  • Опрос
    Откуда Вы о нас узнали?
      0
    • От знакомых2,1,false,300,full
    • Из социальных сетей2,2,false,300,full
    • Из поисковых систем2,3,false,300,full
    • Другое2,4,false,300,full
    Статистика
    Всего онлайн -
    Гостей -
    Пользователей -
    Короли трекера
    Благодарности () Закрыть
    Логово Монстра / Bad Samaritan

    Год выпуска: 2018
    Страна: США
    Производство: Electric Entertainment
    Жанр:  Ужасы, триллер

    Режиссёр: Дин Девлин
    В ролях: Дэвид Теннант, Керри Кондон, Роберт Шиэн, Жаклин Байерс, Лиза Бреннер, Ханна Бэйрфут, Карлито Оливеро, Роб Нэгл, Дэна Милликэн, Тони Дуп

    Перевод: Дублированный | [iTunes]
    Субтитры: Английские
    Реклама: Отсутствует

    Описание: Двое парней, работая парковщиками у элитного ресторана, успешно обчищают дома богатых посетителей, пока те наслаждаются изысканной кухней. Но однажды, вломившись в чужой особняк, кроме роскошной добычи они обнаруживают истерзанную пленницу. Пытаясь спасти девушку, они сами все глубже попадают в западню жестокого монстра.



    Качество: BDRip-AVC | BluRay Disc |  Bad Samaritan 2018 BluRay 1080p AVC DTS-HD MA5.1-MTeam
    Продолжительность: 01:50:11

    Формат: MKV
    Видео кодек: MPEG-4 AVC
    Аудио кодек: AC3
    Видео: 1024x432 (2.40:1), 23,976 fps, x264 ~1 661 kbps avg, 0.157 bit/pixel
    Аудио: 48 kHz, AC3 Dolby Digital, 3/2 (L,C,R,l,r) + LFE ch, ~384.00 kbps avg | RUS (iTunes)
    Аудио: 48 kHz, AC3 Dolby Digital, 3/2 (L,C,R,l,r) + LFE ch, ~448.00 kbps avg | ENG

    Дата премьеры (РФ): 19 апреля 2018, «MEGOGO Distribution»
    Дата премьеры (мир): 12 апреля 2018

    MediaInfo

    Общее
    Уникальный идентификатор                 : 40603326922877068210253827651123740364 (0x1E8BEA93B3AC4B26F3F8F79D72EEFECC)
    Полное имя                               : F:OlLanDGroupBad.Samaritan.2018.BDRip(AVC).OlLanDGroup.mkv
    Формат                                   : Matroska
    Версия формата                           : Version 4 / Version 2
    Размер файла                             : 1,92 Гбайт
    Продолжительность                        : 1 ч. 50 м.
    Общий поток                              : 2495 Кбит/сек
    Название фильма                          : Bad.Samaritan.2018   #TorpedoUK#
    Дата кодирования                         : UTC 2018-08-09 03:44:37
    Программа кодирования                    : mkvmerge v25.0.0 ("Prog Noir") 64-bit
    Библиотека кодирования                   : libebml v1.3.6 + libmatroska v1.4.9

    Видео
    Идентификатор                            : 1
    Формат                                   : AVC
    Формат/Информация                        : Advanced Video Codec
    Профиль формата                          : High@L4.1
    Параметр CABAC формата                   : Да
    Параметр ReFrames формата                : 10 кадров
    Идентификатор кодека                     : V_MPEG4/ISO/AVC
    Продолжительность                        : 1 ч. 50 м.
    Битрейт                                  : 1661 Кбит/сек
    Ширина                                   : 1024 пикселя
    Высота                                   : 432 пикселя
    Соотношение сторон                       : 2,40:1
    Режим частоты кадров                     : Постоянный
    Частота кадров                           : 23,976 (24000/1001) кадра/сек
    Цветовое пространство                    : YUV
    Субдискретизация насыщенности            : 4:2:0
    Битовая глубина                          : 8 бит
    Тип развёртки                            : Прогрессивная
    Бит/(Пиксели*Кадры)                      : 0.157
    Размер потока                            : 1,28 Гбайт (67%)
    Библиотека кодирования                   : x264 core 146 r2538 121396c
    Настройки программы                      : cabac=1 / ref=10 / deblock=1:-3:-3 / analyse=0x3:0x113 / me=umh / subme=11 / psy=1 / psy_rd=0.99:0.04 / mixed_ref=1 / me_range=48 / chroma_me=1 / trellis=2 / 8x8dct=1 / cqm=0 / deadzone=21,11 / fast_pskip=1 / chroma_qp_offset=-3 / threads=6 / lookahead_threads=1 / sliced_threads=0 / nr=0 / decimate=1 / interlaced=0 / bluray_compat=0 / constrained_intra=0 / bframes=10 / b_pyramid=2 / b_adapt=2 / b_bias=0 / direct=3 / weightb=1 / open_gop=0 / weightp=2 / keyint=240 / keyint_min=23 / scenecut=40 / intra_refresh=0 / rc_lookahead=40 / rc=2pass / mbtree=1 / bitrate=1661 / ratetol=1.0 / qcomp=0.60 / qpmin=0 / qpmax=69 / qpstep=4 / cplxblur=20.0 / qblur=0.5 / vbv_maxrate=50000 / vbv_bufsize=62500 / nal_hrd=none / filler=0 / ip_ratio=1.40 / aq=1:1.00
    Язык                                     : English
    Default                                  : Да
    Forced                                   : Нет

    Аудио #1
    Идентификатор                            : 2
    Формат                                   : AC-3
    Формат/Информация                        : Audio Coding 3
    Расширение режима                        : CM (complete main)
    Параметр Endianness формата              : Big
    Идентификатор кодека                     : A_AC3
    Продолжительность                        : 1 ч. 50 м.
    Вид битрейта                             : Постоянный
    Битрейт                                  : 384 Кбит/сек
    Каналы                                   : 6 каналов
    Расположение каналов                     : Front: L C R, Side: L R, LFE
    Частота                                  : 48,0 КГц
    Частота кадров                           : 31,250 кадров/сек (1536 spf)
    Битовая глубина                          : 16 бит
    Метод сжатия                             : С потерями
    Размер потока                            : 302 Мбайт (15%)
    Заголовок                                : iTunes
    Язык                                     : Russian
    Default                                  : Да
    Forced                                   : Нет

    Аудио #2
    Идентификатор                            : 3
    Формат                                   : AC-3
    Формат/Информация                        : Audio Coding 3
    Расширение режима                        : CM (complete main)
    Параметр Endianness формата              : Big
    Идентификатор кодека                     : A_AC3
    Продолжительность                        : 1 ч. 50 м.
    Вид битрейта                             : Постоянный
    Битрейт                                  : 448 Кбит/сек
    Каналы                                   : 6 каналов
    Расположение каналов                     : Front: L C R, Side: L R, LFE
    Частота                                  : 48,0 КГц
    Частота кадров                           : 31,250 кадров/сек (1536 spf)
    Битовая глубина                          : 16 бит
    Метод сжатия                             : С потерями
    Размер потока                            : 353 Мбайт (18%)
    Заголовок                                : Original
    Язык                                     : English
    Default                                  : Нет
    Forced                                   : Нет

    Текст #1
    Идентификатор                            : 4
    Формат                                   : UTF-8
    Идентификатор кодека                     : S_TEXT/UTF8
    Идентификатор кодека/Информация          : UTF-8 Plain Text
    Продолжительность                        : 1 ч. 45 м.
    Битрейт                                  : 49 бит/сек
    Count of elements                        : 1180
    Размер потока                            : 38,0 Кбайт (0%)
    Заголовок                                : Full
    Язык                                     : English
    Default                                  : Нет
    Forced                                   : Нет

    Текст #2
    Идентификатор                            : 5
    Формат                                   : UTF-8
    Идентификатор кодека                     : S_TEXT/UTF8
    Идентификатор кодека/Информация          : UTF-8 Plain Text
    Продолжительность                        : 1 ч. 45 м.
    Битрейт                                  : 56 бит/сек
    Count of elements                        : 1404
    Размер потока                            : 43,7 Кбайт (0%)
    Заголовок                                : SDH
    Язык                                     : English
    Default                                  : Нет
    Forced                                   : Нет

    Меню
    00:00:00.000                             : en:Chapter 1
    00:06:21.047                             : en:Chapter 2
    00:12:34.920                             : en:Chapter 3
    00:20:14.171                             : en:Chapter 4
    00:31:01.484                             : en:Chapter 5
    00:39:04.133                             : en:Chapter 6
    00:44:44.598                             : en:Chapter 7
    00:48:39.917                             : en:Chapter 8
    00:56:36.476                             : en:Chapter 9
    01:02:38.880                             : en:Chapter 10
    01:10:56.627                             : en:Chapter 11
    01:17:26.099                             : en:Chapter 12
    01:23:51.818                             : en:Chapter 13
    01:27:36.417                             : en:Chapter 14
    01:33:58.633                             : en:Chapter 15
    01:41:45.099                             : en:Chapter 16
    Свернуть


    Похожие раздачи Искать похожие
    Инструкция по скачиванию
     1  Качаем uTorrent версии 2.0 и выше
     2  После установки, жмем выше под постером на ссылку Скачать [MediaGet] или Скачать .torrent
     3  Открываем скачанный файл через соответствующий клиент: MediaGet или uTorrent
     4  Ждем пока подключатся участники
     5  Качаем
    Комментарии о  Логово Монстра / Bad Samaritan | BDRip-AVC 
    Ближайшее в кино
    Вверх