• Игры для PS4
  • Игры для PS3
  • Игры для XBOX360
  • Игры для PC
  • Игры для PS2
  • Игры для PSP
  • Для телефонов
  • Музыка
  • Книги / Журналы
  • Обои
  • Опрос
    Удобен ли сайт в использовании?
      0
    • Очень удобен, все понятно1,1,false,300,full
    • Удобен1,2,false,300,full
    • Средне1,3,false,300,full
    • Неудобен, трудно ориентироваться1,4,false,300,full
    • Совсем неудобен1,5,false,300,full
    Статистика
    Всего онлайн -
    Гостей -
    Пользователей -
    Короли трекера
    Благодарности () Закрыть
    Информация о фильме
    Год выхода: 2017
    Наименование: Придурки из Швеции / Шведские стволы
    Оригинальное наименование: Swedish Dicks
    Страна: США, Швеция
    Жанр:  комедия, криминал
    Режиссер постановщик: Джон Холмберг, Питер Сеттман
    В главных ролях: Петер Стормаре, Йохан Гланс, Вивиан Банг, Фелиша Купер, Киану Ривз, Стефани Кениг, Трейси Лордс, Жан-Поль Мано, Сюзанн Форд

    О фильме: Действие сериала разворачивается в Лос-Анджелесе, где некогда успешный швед Ингмар пытается зарабатывать на жизнь в качестве частного детектива, после того, как его карьера каскадёра закончилась трагедией. Очередное дело приводит его к ничего не подозревающему земляку Акселю, который достиг довольно больших успехов, путешествуя по миру в качестве ди-джея, но в конце-концов удача покинула его. Аксель готов к новым свершениям и в итоге присоединяется к агентству Ингмара под названием «Шведский ствол», трансформировавшемуся отныне в «Шведские стволы», где они распутывают самые странные происшествия в городе...



    Файл
    Качество:  WEBRip 1080p
    Видео данные: MKV, 1920x1080 (16:9), 23.976 fps, 4479 Кбит/с
    Аудио данные: AAC, 2 ch, 192 Кбит/с
    Перевод: Любительский многоголосый (GreenРай Studio)
    Продолжительность: 10 x 00:23:00

    Медиаинфо
    General
    Unique ID                                : 272414854232301750044583754468330672648 (0xCCF1314815E31AEED9CB7B61A3D59208)
    Complete name                            : D:ГРИНРАЙSwedish.Dicks.S02.1080p[WEB].Придурки из Швеции s02e01.[1080p].mkv
    Format                                   : Matroska
    Format version                           : Version 4 / Version 2
    File size                                : 798 MiB
    Duration                                 : 23 min 53 s
    Overall bit rate                         : 4 671 kb/s
    Encoded date                             : UTC 2018-07-13 10:30:15
    Writing application                      : mkvmerge v21.0.0 ("Tardigrades Will Inherit The Earth") 64-bit
    Writing library                          : libebml v1.3.5 + libmatroska v1.4.8

    Video
    ID                                       : 1
    Format                                   : AVC
    Format/Info                              : Advanced Video Codec
    Format profile                           : High@L4
    Format settings                          : CABAC / 1 Ref Frames
    Format settings, CABAC                   : Yes
    Format settings, RefFrames               : 1 frame
    Format settings, GOP                     : M=1, N=30
    Codec ID                                 : V_MPEG4/ISO/AVC
    Duration                                 : 23 min 53 s
    Bit rate                                 : 4 479 kb/s
    Width                                    : 1 920 pixels
    Height                                   : 1 080 pixels
    Display aspect ratio                     : 16:9
    Frame rate mode                          : Constant
    Frame rate                               : 23.976 (24000/1001) FPS
    Color space                              : YUV
    Chroma subsampling                       : 4:2:0
    Bit depth                                : 8 bits
    Scan type                                : Progressive
    Bits/(Pixel*Frame)                       : 0.090
    Stream size                              : 765 MiB (96%)
    Language                                 : English
    Default                                  : Yes
    Forced                                   : No

    Audio
    ID                                       : 2
    Format                                   : AAC
    Format/Info                              : Advanced Audio Codec
    Format profile                           : LC
    Codec ID                                 : A_AAC-2
    Duration                                 : 23 min 53 s
    Bit rate                                 : 192 kb/s
    Channel(s)                               : 2 channels
    Channel positions                        : Front: L R
    Sampling rate                            : 48.0 kHz
    Frame rate                               : 46.875 FPS (1024 SPF)
    Compression mode                         : Lossy
    Stream size                              : 32.4 MiB (4%)
    Language                                 : English
    Default                                  : Yes
    Forced                                   : NoСвернуть


    Внимание, имеется  видео и аудио реклама от спонсора показа

    Похожие раздачи Искать похожие
    Инструкция по скачиванию
     1  Качаем uTorrent версии 2.0 и выше
     2  После установки, жмем выше под постером на ссылку Скачать [MediaGet] или Скачать .torrent
     3  Открываем скачанный файл через соответствующий клиент: MediaGet или uTorrent
     4  Ждем пока подключатся участники
     5  Качаем
    Комментарии о  Придурки из Швеции / Шведские стволы / Swedish Dicks [Сезон 02] | WEBRip 1080p 
    Ближайшее в кино
    Вверх