• Игры для PS4
  • Игры для PS3
  • Игры для XBOX360
  • Игры для PC
  • Игры для PS2
  • Игры для PSP
  • Для телефонов
  • Музыка
  • Книги / Журналы
  • Обои
  • Опрос
    Откуда Вы о нас узнали?
      0
    • От знакомых2,1,false,300,full
    • Из социальных сетей2,2,false,300,full
    • Из поисковых систем2,3,false,300,full
    • Другое2,4,false,300,full
    Статистика
    Всего онлайн -
    Гостей -
    Пользователей -
    Короли трекера
    Благодарности () Закрыть
    Информация о фильме
    Название: Как разговаривать с девушками на вечеринках
    Оригинальное название: How to Talk to Girls at Parties
    Год выпуска: 2017
    Жанр:  Фантастика, мелодрама, комедия, музыка
    Режиссер: Джон Кэмерон Митчелл
    В ролях: Элль Фэннинг, Николь Кидман, Рут Уилсон, Стивен Кэмпбелл Мур, Мэтт Лукас, Алекс Шарп, Эларика Галлахер, Джоэнна Скэнлэн, Том Брук, Элуиз Смит

    О фильме :
    Сложно заговорить с незнакомой девушкой, вдвойне — если она инопланетянка неземной красоты, которая навсегда покинет Лондон (и Солнечную систему), как только закончится межгалактическая вечеринка. Но симпатичный бунтарь Энн настроен решительно: взорвать танцпол пришельцев и вместе с панк-королевой совершить маленькую революцию — чего ни сделаешь ради любви! Осталось решить главную загадку Вселенной: как подойти к девушке на вечеринке?



    Страна: Великобритания, США
    Студия: Little Punk, See-Saw Films
    Продолжительность: 01:42:27
    Перевод: Профессиональный (многоголосый, закадровый) | HDrezka Studio

    Файл
    Формат: MKV
    Качество: HDRip-AVC
    Видео: MPEG-4 AVC, 768x416, ~ 1000 Кбит/с
    Аудио: [img]http://i93.fastpic.ru/big/2017/0727/c0/4b72f0369a3393219ed5935e91fc15c0.gif[/img] AAC-HE, 2 ch, ~ 64 Кбит/с
    Субтитры: Русские (полные), Английские (полные, SDH)

    MI
    Общее
    Уникальный идентификатор : 194583936712451003418606276039250294098 (0x926380C74DA0CA868713B5E943803552)
    Полное имя : D:MOVIESHow.to.Talk.to.Girls.at.Parties.2017.ExKinoRay.mkv
    Формат : Matroska
    Версия формата : Version 4 / Version 2
    Размер файла : 778 Мбайт
    Продолжительность : 1 ч. 42 м.
    Общий поток : 1062 Кбит/сек
    Дата кодирования : UTC 2018-08-09 03:45:45
    Программа кодирования : mkvmerge v15.0.0 ("Duel with the Devil") 64-bit
    Библиотека кодирования : libebml v1.3.5 + libmatroska v1.4.5

    Видео
    Идентификатор : 1
    Формат : AVC
    Формат/Информация : Advanced Video Codec
    Профиль формата : High@L4.1
    Параметр CABAC формата : Да
    Параметр RefFrames формата : 12 кадров
    Идентификатор кодека : V_MPEG4/ISO/AVC
    Продолжительность : 1 ч. 42 м.
    Битрейт : 1000 Кбит/сек
    Ширина : 768 пикселей
    Высота : 416 пикселей
    Соотношение сторон : 1,85:1
    Режим частоты кадров : Постоянный
    Частота кадров : 23,976 (24000/1001) кадра/сек
    Цветовое пространство : YUV
    Субдискретизация насыщенности : 4:2:0
    Битовая глубина : 8 бит
    Тип развёртки : Прогрессивная
    Бит/(Пиксели*Кадры) : 0.131
    Размер потока : 730 Мбайт (94%)
    Библиотека кодирования : x264 core 152 r2851kMod ba24899
    Настройки программы : cabac=1 / ref=12 / deblock=1:-3:-3 / analyse=0x3:0x133 / me=umh / subme=10 / psy=1 / fade_compensate=0.00 / psy_rd=1.00:0.13 / mixed_ref=1 / me_range=32 / chroma_me=1 / trellis=2 / 8x8dct=1 / cqm=0 / deadzone=21,11 / fast_pskip=0 / chroma_qp_offset=-3 / threads=6 / lookahead_threads=1 / sliced_threads=0 / nr=0 / decimate=0 / interlaced=0 / bluray_compat=0 / constrained_intra=0 / bframes=11 / b_pyramid=2 / b_adapt=2 / b_bias=0 / direct=3 / weightb=1 / open_gop=0 / weightp=2 / keyint=240 / keyint_min=23 / scenecut=40 / intra_refresh=0 / rc_lookahead=40 / rc=2pass / mbtree=1 / bitrate=1000 / ratetol=1.0 / qcomp=0.60 / qpmin=0 / qpmax=69 / qpstep=4 / cplxblur=20.0 / qblur=0.5 / ip_ratio=1.40 / aq=3:1.00
    Default : Да
    Forced : Нет

    Аудио
    Идентификатор : 2
    Формат : AAC
    Формат/Информация : Advanced Audio Codec
    Профиль формата : HE-AAC / LC
    Идентификатор кодека : A_AAC
    Продолжительность : 1 ч. 42 м.
    Битрейт : 64,0 Кбит/сек
    Каналы : 2 канала
    Расположение каналов : Front: L R
    Частота : 48,0 КГц / 24,0 КГц
    Частота кадров : 23,438 кадра/сек (1024 SPF)
    Метод сжатия : С потерями
    Задержка видео : 31 мс.
    Размер потока : 46,9 Мбайт (6%)
    Default : Да
    Forced : Нет

    Текст #1
    Идентификатор : 3
    Формат : UTF-8
    Идентификатор кодека : S_TEXT/UTF8
    Идентификатор кодека/Информация : UTF-8 Plain Text
    Продолжительность : 1 ч. 41 м.
    Битрейт : 75 бит/сек
    ElementCount : 1161
    Размер потока : 56,5 Кбайт (0%)
    Заголовок : Full
    Язык : Russian
    Default : Нет
    Forced : Нет

    Текст #2
    Идентификатор : 4
    Формат : UTF-8
    Идентификатор кодека : S_TEXT/UTF8
    Идентификатор кодека/Информация : UTF-8 Plain Text
    Продолжительность : 1 ч. 41 м.
    Битрейт : 44 бит/сек
    ElementCount : 1207
    Размер потока : 33,5 Кбайт (0%)
    Заголовок : Full
    Язык : English
    Default : Нет
    Forced : Нет

    Текст #3
    Идентификатор : 5
    Формат : UTF-8
    Идентификатор кодека : S_TEXT/UTF8
    Идентификатор кодека/Информация : UTF-8 Plain Text
    Продолжительность : 1 ч. 41 м.
    Битрейт : 52 бит/сек
    ElementCount : 1388
    Размер потока : 38,9 Кбайт (0%)
    Заголовок : SDH
    Язык : English
    Default : Нет
    Forced : Нет

    Меню
    00:00:00.000 : en:00:00:00.000
    00:09:36.910 : en:00:09:36.910
    00:16:37.205 : en:00:16:37.205
    00:24:44.650 : en:00:24:44.650
    00:32:50.802 : en:00:32:50.802
    00:41:36.244 : en:00:41:36.244
    00:49:55.743 : en:00:49:55.743
    00:59:40.243 : en:00:59:40.243
    01:08:32.859 : en:01:08:32.859
    01:15:41.245 : en:01:15:41.245
    01:22:48.839 : en:01:22:48.839
    01:33:20.053 : en:01:33:20.053
    Свернуть


    Скриншоты

    [screen]http://img11.lostpic.net/2018/08/09/b186cc3144cf7d57af41012edf4614f6.png[/screen][screen]http://img11.lostpic.net/2018/08/09/efc68332fab36054a17f87ad9e0fe280.png[/screen][screen]http://img11.lostpic.net/2018/08/09/2aaa985659b422ff92c0fee49ebee29e.png[/screen][screen]http://img11.lostpic.net/2018/08/09/93ba8416378bbde619efb509a72cc866.png[/screen][screen]http://img11.lostpic.net/2018/08/09/2211d701a75c97680fabbf4b767917a9.png[/screen][screen]http://img11.lostpic.net/2018/08/09/ed6244fccb84ed6d82f66f0dd59262e5.png[/screen][screen]http://img11.lostpic.net/2018/08/09/7e6d22c6d8c1b5b83521d28f3f438a1f.png[/screen][screen]http://img11.lostpic.net/2018/08/09/f4b31340b0578bc536f6fb6cb766f7b6.png[/screen]
    Свернуть


    [img]http://i101.fastpic.ru/big/2018/0205/db/2bb5d8d6418a0fdc34277325cb111edb.gif[/img][img]http://i92.fastpic.ru/big/2017/0727/ee/d5deb5b73669b4c45974c6b5d6c309ee.gif[/img] [img]http://img12.lostpic.net/2018/03/09/13af6981458d1d0b6a9d5e5286e0688e.gif[/img][img]http://i92.fastpic.ru/big/2017/0727/34/cf9a17c70dfe7fe87e42af3f9f29e734.gif[/img]
    Похожие раздачи Искать похожие
    Инструкция по скачиванию
     1  Качаем uTorrent версии 2.0 и выше
     2  После установки, жмем выше под постером на ссылку Скачать [MediaGet] или Скачать .torrent
     3  Открываем скачанный файл через соответствующий клиент: MediaGet или uTorrent
     4  Ждем пока подключатся участники
     5  Качаем
    Комментарии о  Как разговаривать с девушками на вечеринках / How to Talk to Girls at Parties | HDRip-AVC 
    Ближайшее в кино
    Вверх