• Игры для PS4
  • Игры для PS3
  • Игры для XBOX360
  • Игры для PC
  • Игры для PS2
  • Игры для PSP
  • Для телефонов
  • Музыка
  • Книги / Журналы
  • Обои
  • Опрос
    Удобен ли сайт в использовании?
      0
    • Очень удобен, все понятно1,1,false,300,full
    • Удобен1,2,false,300,full
    • Средне1,3,false,300,full
    • Неудобен, трудно ориентироваться1,4,false,300,full
    • Совсем неудобен1,5,false,300,full
    Статистика
    Всего онлайн -
    Гостей -
    Пользователей -
    Короли трекера
    Благодарности () Закрыть
    Информация о фильме
    Название: Поцеловать Кэндис
    Оригинальное название: Kissing Candice
    Год выхода: 2017
    Жанр: Драма
    Режиссер: Аоиф Макардл
    В ролях: Энн Скелли, Райан Линкольн, Коналл Китинг, Райан МакПарланд, Катриона Эннис, Джон Линч, Тони Дойл, Магнус Фой, Джеймс Грин, Сиган Ог О Нилл и другие
    О фильме:
    Кэндис давно мечтает сбежать от скуки родного приморского городка, но после знакомства с парнем своей мечты оказывается замешанной в делах опасной местной банды.



    Страна: Ирландия, Великобритания, Bord Scannan na hEireann / Irish Film Board
    Продолжительность: 01:48:17
    Перевод: Любительский (двухголосый закадровый) | HiWay Grope

    Файл
    Кодек: MPEG-4 AVC/x.264
    Качество: WEBRip 720p
    Видео: 1280x534, 23.976 fps, ~2913 kbps, 0.178 bit/pixel
    Звук:
    Аудио rus: AC3, 48 kHz, 6 ch, 384 Kbps
    Субтитры: отсутствуют

    Реклама: присутствует

    Семпл

    MediaInfo

    General
    Unique ID                                : 7247135189194303357044886163743353093 (0x573BF5A027C5890E5A28D1E5D14A905)
    Complete name                            : D:Kissing.Candice.2017.WEBRip-AVC.HiWayGropeKissing.Candice.2017.720p.WEBRip.HiWayGrope.mkv
    Format                                   : Matroska
    Format version                           : Version 4 / Version 2
    File size                                : 2.54 GiB
    Duration                                 : 1h 48mn
    Overall bit rate                         : 3 364 Kbps
    Encoded date                             : UTC 2018-08-09 03:26:45
    Writing application                      : mkvmerge v25.0.0 ("Prog Noir") 64-bit
    Writing library                          : libebml v1.3.6 + libmatroska v1.4.9

    Video
    ID                                       : 1
    Format                                   : AVC
    Format/Info                              : Advanced Video Codec
    Format profile                           : Main@L4.1
    Format settings, CABAC                   : Yes
    Format settings, ReFrames                : 4 frames
    Codec ID                                 : V_MPEG4/ISO/AVC
    Duration                                 : 1h 48mn
    Bit rate                                 : 2 913 Kbps
    Width                                    : 1 280 pixels
    Height                                   : 534 pixels
    Display aspect ratio                     : 2.40:1
    Frame rate mode                          : Constant
    Frame rate                               : 23.976 (24000/1001) fps
    Standard                                 : NTSC
    Color space                              : YUV
    Chroma subsampling                       : 4:2:0
    Bit depth                                : 8 bits
    Scan type                                : Progressive
    Bits/(Pixel*Frame)                       : 0.178
    Stream size                              : 2.20 GiB (87%)
    Language                                 : English
    Default                                  : Yes
    Forced                                   : No
    Color range                              : Limited
    Color primaries                          : BT.601 NTSC
    Transfer characteristics                 : BT.601
    Matrix coefficients                      : BT.601

    Audio
    ID                                       : 2
    Format                                   : AC-3
    Format/Info                              : Audio Coding 3
    Mode extension                           : CM (complete main)
    Format settings, Endianness              : Big
    Codec ID                                 : A_AC3
    Duration                                 : 1h 48mn
    Bit rate mode                            : Constant
    Bit rate                                 : 384 Kbps
    Channel(s)                               : 6 channels
    Channel positions                        : Front: L C R, Side: L R, LFE
    Sampling rate                            : 48.0 KHz
    Frame rate                               : 31.250 fps (1536 spf)
    Compression mode                         : Lossy
    Stream size                              : 297 MiB (11%)
    Language                                 : Russian
    Default                                  : Yes
    Forced                                   : No

    Свернуть


    Похожие раздачи Искать похожие
    Инструкция по скачиванию
     1  Качаем uTorrent версии 2.0 и выше
     2  После установки, жмем выше под постером на ссылку Скачать [MediaGet] или Скачать .torrent
     3  Открываем скачанный файл через соответствующий клиент: MediaGet или uTorrent
     4  Ждем пока подключатся участники
     5  Качаем
    Комментарии о  Поцеловать Кэндис / Kissing Candice | WEBRip 720p 
    Ближайшее в кино
    Вверх