• Игры для PS4
  • Игры для PS3
  • Игры для XBOX360
  • Игры для PC
  • Игры для PS2
  • Игры для PSP
  • Для телефонов
  • Музыка
  • Книги / Журналы
  • Обои
  • Опрос
    Откуда Вы о нас узнали?
      0
    • От знакомых2,1,false,300,full
    • Из социальных сетей2,2,false,300,full
    • Из поисковых систем2,3,false,300,full
    • Другое2,4,false,300,full
    Статистика
    Всего онлайн -
    Гостей -
    Пользователей -
    Короли трекера
    Благодарности () Закрыть
    Информация о фильме
    Название: Мисс Стивенс
    Оригинальное название: Miss Stevens
    Год выхода: 2016
    Жанр: Драма, комедия
    Режиссер: Джулия Харт
    В ролях: Лили Рэйб,Тимоти Шаламе, Лили Рейнхарт, Лоухэнтони, Оскар Нунез, Роб Хюбель, Ларри Холл мл., Ной Грэй-Кэби, Джэмми Паттон, Майк Холли

    О фильме:
    Преподаватель мисс Стивенс сопровождает своих учеников Билли, Марго и Сэма в поездке на соревнования штата. За выходные, проведённые в обществе тинейджеров, она обнаруживает тонкость грани между детством и взрослой жизнью.

    [img]http://imdb.snick.ru/ratefor/02/tt2693580.png[/img][img]https://rating.kinopoisk.ru/737538.gif[/img]

    Страна: США
    Студия: Beachside Films, Gilbert Films, Original Headquarters
    Продолжительность: 01:26:02
    Перевод: Субтитры

    Файл
    Кодек: x264
    Качество: WEB-DL 1080p
    Видео: MPEG-4 AVC, 5039 Kбит/с, 1920x1080
    Звук: Английский | AC3, 6 ch, 384 Кбит/с
    Субтитры: Русские, английские



    Инфо-файл
    Формат                                   : Matroska
    Версия формата                           : Version 2
    Размер файла                             : 3,32 Гбайт
    Продолжительность                        : 1 ч. 26 м.
    Общий поток                              : 5533 Кбит/сек
    Название фильма                          : Miss.Stevens.2016.1080p.WEB-DL.by.zzZGVvv
    Дата кодирования                         : UTC 2018-08-09 05:30:27
    Программа кодирования                    : mkvmerge v5.8.0 ("No Sleep / Pillow") built on Sep  2 2012 15:37:04
    Библиотека кодирования                   : libebml v1.2.3 + libmatroska v1.3.0
    Attachements                             : cover.jpg

    Видео
    Идентификатор                            : 1
    Формат                                   : AVC
    Формат/Информация                        : Advanced Video Codec
    Профиль формата                          : High@L4
    Параметр CABAC формата                   : Да
    Параметр ReFrames формата                : 4 кадра
    Идентификатор кодека                     : V_MPEG4/ISO/AVC
    Продолжительность                        : 1 ч. 26 м.
    Битрейт                                  : 5039 Кбит/сек
    Ширина                                   : 1920 пикселей
    Высота                                   : 1080 пикселей
    Соотношение сторон                       : 16:9
    Режим частоты кадров                     : Постоянный
    Частота кадров                           : 23,976 кадра/сек
    Цветовое пространство                    : YUV
    Субдискретизация насыщенности            : 4:2:0
    Битовая глубина                          : 8 бит
    Тип развёртки                            : Прогрессивная
    Бит/(Пиксели*Кадры)                      : 0.101
    Размер потока                            : 3,03 Гбайт (91%)
    Заголовок                                : Miss.Stevens.2016.1080p.WEB-DL
    Язык                                     : English
    Default                                  : Да
    Forced                                   : Нет
    Цветовой диапазон                        : Limited
    Основные цвета                           : BT.709
    Характеристики трансфера                 : BT.709
    Коэффициенты матрицы                     : BT.709

    Аудио
    Идентификатор                            : 2
    Формат                                   : AC-3
    Формат/Информация                        : Audio Coding 3
    Расширение режима                        : CM (complete main)
    Параметр Endianness формата              : Big
    Идентификатор кодека                     : A_AC3
    Продолжительность                        : 1 ч. 26 м.
    Вид битрейта                             : Постоянный
    Битрейт                                  : 384 Кбит/сек
    Каналы                                   : 6 каналов
    Расположение каналов                     : Front: L C R, Side: L R, LFE
    Частота                                  : 48,0 КГц
    Метод сжатия                             : С потерями
    Размер потока                            : 236 Мбайт (7%)
    Язык                                     : English
    Default                                  : Да
    Forced                                   : Нет

    Текст #1
    Идентификатор                            : 3
    Формат                                   : UTF-8
    Идентификатор кодека                     : S_TEXT/UTF8
    Идентификатор кодека/Информация          : UTF-8 Plain Text
    Язык                                     : Russian
    Default                                  : Да
    Forced                                   : Нет

    Текст #2
    Идентификатор                            : 4
    Формат                                   : UTF-8
    Идентификатор кодека                     : S_TEXT/UTF8
    Идентификатор кодека/Информация          : UTF-8 Plain Text
    Язык                                     : English
    Default                                  : Нет
    Forced                                   : Нет

    Меню
    00:00:00.000                             : en:Chapter One
    00:15:00.000                             : en:Chapter Two
    00:30:00.000                             : en:Chapter Three
    00:45:00.000                             : en:Chapter Four
    01:00:00.000                             : en:Chapter Five
    01:15:00.000                             : en:Chapter Six

    Свернуть
    Похожие раздачи Искать похожие
    Инструкция по скачиванию
     1  Качаем uTorrent версии 2.0 и выше
     2  После установки, жмем выше под постером на ссылку Скачать [MediaGet] или Скачать .torrent
     3  Открываем скачанный файл через соответствующий клиент: MediaGet или uTorrent
     4  Ждем пока подключатся участники
     5  Качаем
    Комментарии о  Мисс Стивенс / Miss Stevens | WEB-DL 1080p 
    Ближайшее в кино
    Вверх