• Игры для PS4
  • Игры для PS3
  • Игры для XBOX360
  • Игры для PC
  • Игры для PS2
  • Игры для PSP
  • Для телефонов
  • Музыка
  • Книги/Журналы
  • Обои
  •  
    Опрос
    Откуда Вы о нас узнали?
      0
    • От знакомых2,1,false,300,full
    • Из социальных сетей2,2,false,300,full
    • Из поисковых систем2,3,false,300,full
    • Другое2,4,false,300,full
    Статистика
    Загрузка...
    Расхитительница гробниц / Tomb Invader | HDRip 720p
    Статус  Проверено
    В закладки
    Модератор: Max

    Расхитительница гробниц / Tomb Invader | HDRip 720p [Фильмы 2018] скачать торрентом/torrent бесплатно

    Год выхода
    Язык
    Закачал
    Max | 09 августа в 10ч 37м 35с
    Раздел
    Отзывов
    0
    Раздают: 22 Качают: 3 Скачали: 65 Размер: 3.85 GB
    Инфо о раздаче | Благодарности |
    0/5
    0
    0 5 0
    Поддержи нас — расскажи друзьям!
    Orbitum
    Новый интернет-браузер Быстрее загружает сайты Экономит интернет—трафик Меняет оформление страницы ВК Блокирует всю рекламу на сайтах Загружает торренты как

    µTorrent

    клиент
    Объеденяет все твои чаты из соц. сетей в один Проигрывает твою музыку не заходя во ВКонтакте
    Скачать и многое другое... Подробности на сайте производителя
    Информация о фильме
    Год выхода: 2018
    Наименование: Расхитительница гробниц
    Оригинальное наименование: Tomb Invader
    Страна: США
    Жанр:  боевик, приключения
    Режиссер постановщик: Джеймс Томас
    В главных ролях: Джина Витори, Саманта Боулинг, Эндрю Джей Катерс, Ивэн Слоун Вайнштейн, Шон Макконнелл, Тэмми Клейн, Кейт Уотсон

    О фильме: Загадочный миллиардер нанимает археолога Алабаму Ченнинг найти древнее китайское сокровище. Именно его искала ее мать перед тем, как пропала без вести.



    Файл
    Качество:  HDRip 720p
    Видео данные: MKV, 1280x720 (16:9), 23.976 fps, 5795 Кбит/с
    Аудио данные: AC3, 2 ch, 640 Кбит/с
    Перевод: Любительский многоголосый (GreenРай Studio)
    Продолжительность: 01:23:59

    Медиаинфо
    General
    Unique ID                                : 217084065720297075714767761236992369918 (0xA350DEC97DA10D51BD0BA41E9A06A4FE)
    Complete name                            : E:ГРИНРАЙTomb.Invader.2018.P.BDRip.720p.mkv
    Format                                   : Matroska
    Format version                           : Version 2
    File size                                : 3.85 GiB
    Duration                                 : 1 h 23 min
    Overall bit rate                         : 6 566 kb/s
    Encoded date                             : UTC 2018-08-08 07:18:23
    Writing application                      : mkvmerge v7.8.0 ("River Man") 32bit built on Apr  3 2015 12:11:22
    Writing library                          : libebml v1.3.1 + libmatroska v1.4.2

    Video
    ID                                       : 1
    Format                                   : AVC
    Format/Info                              : Advanced Video Codec
    Format profile                           : High@L3.1
    Format settings                          : CABAC / 4 Ref Frames
    Format settings, CABAC                   : Yes
    Format settings, RefFrames               : 4 frames
    Codec ID                                 : V_MPEG4/ISO/AVC
    Duration                                 : 1 h 23 min
    Bit rate                                 : 5 795 kb/s
    Width                                    : 1 280 pixels
    Height                                   : 720 pixels
    Display aspect ratio                     : 16:9
    Frame rate mode                          : Constant
    Frame rate                               : 23.976 FPS
    Color space                              : YUV
    Chroma subsampling                       : 4:2:0
    Bit depth                                : 8 bits
    Scan type                                : Progressive
    Bits/(Pixel*Frame)                       : 0.262
    Stream size                              : 3.40 GiB (88%)
    Writing library                          : x264 core 146 r2538 121396c
    Encoding settings                        : cabac=1 / ref=1 / deblock=1:0:0 / analyse=0x3:0x113 / me=hex / subme=2 / psy=1 / psy_rd=1.00:0.00 / mixed_ref=0 / me_range=16 / chroma_me=1 / trellis=0 / 8x8dct=1 / cqm=0 / deadzone=21,11 / fast_pskip=1 / chroma_qp_offset=0 / threads=9 / lookahead_threads=3 / sliced_threads=0 / nr=0 / decimate=1 / interlaced=0 / bluray_compat=0 / constrained_intra=0 / bframes=3 / b_pyramid=2 / b_adapt=1 / b_bias=0 / direct=1 / weightb=1 / open_gop=0 / weightp=1 / keyint=250 / keyint_min=23 / scenecut=40 / intra_refresh=0 / rc_lookahead=10 / rc=crf / mbtree=1 / crf=15.4 / qcomp=0.60 / qpmin=0 / qpmax=69 / qpstep=4 / ip_ratio=1.40 / aq=1:1.00
    Default                                  : Yes
    Forced                                   : No

    Audio
    ID                                       : 2
    Format                                   : AC-3
    Format/Info                              : Audio Coding 3
    Codec ID                                 : A_AC3
    Duration                                 : 1 h 23 min
    Bit rate mode                            : Constant
    Bit rate                                 : 640 kb/s
    Channel(s)                               : 2 channels
    Channel positions                        : Front: L R
    Sampling rate                            : 48.0 kHz
    Frame rate                               : 31.250 FPS (1536 SPF)
    Bit depth                                : 16 bits
    Compression mode                         : Lossy
    Stream size                              : 384 MiB (10%)
    Service kind                             : Complete Main
    Default                                  : Yes
    Forced                                   : No


    Внимание, имеется  видео и аудио реклама от спонсора показа

    Еще похожие »

    Как скачать?
    1. Качаем UTorrent версии 2.0 и выше отсюда
    2. После установки, жмем на ссылку Скачать торрент.
    3. Открываем его через utorrent.
    4. Ждем пока подключатся участники.
    5. Качаем.


    Комментарии о Расхитительница гробниц / Tomb Invader | HDRip 720p
    Добавлять комментарии могут только зарегистрированные пользователи

    Зарегистрироваться или Войти


    Ближайшее в кино
    • МУЛЬТ в кино. Выпуск №79. Как в сказке! дата выхода 18 августа 2018МУЛЬТ в кино. Выпуск №79. Как в сказке!
      Дата выхода: 18 августа 2018
    • 1007425|Днюха!|23 августа 2018|200|300Днюха!
      Дата выхода: 23 августа 2018
    • 921938|22 мили|23 августа 2018|200|30022 мили
      Дата выхода: 23 августа 2018
    • 934956|Альфа|23 августа 2018|200|300Альфа
      Дата выхода: 23 августа 2018
    • 1023331|Отель «Артемида»|23 августа 2018|200|300Отель «Артемида»
      Дата выхода: 23 августа 2018
    • 1008748|Не волнуйся, он далеко не уйдёт|23 августа 2018|200|300Не волнуйся, он далеко не уйдёт
      Дата выхода: 23 августа 2018
    • 1008240|Последний беспредел|23 августа 2018|200|300Последний беспредел
      Дата выхода: 23 августа 2018
    • 789159|Шоу Мистико|23 августа 2018|200|300Шоу Мистико
      Дата выхода: 23 августа 2018
    • 986638|Принцесса и дракон|23 августа 2018|200|300Принцесса и дракон
      Дата выхода: 23 августа 2018
    • 675470|Голубая игуана|23 августа 2018|200|300Голубая игуана
      Дата выхода: 23 августа 2018
    • 1108921|Вилли и крутые тачки|23 августа 2018|200|300Вилли и крутые тачки
      Дата выхода: 23 августа 2018
    • 380|2001 год: Космическая одиссея|30 августа 2018|200|3002001 год: Космическая одиссея
      Дата выхода: 30 августа 2018
    • 1048294|Как женить холостяка|30 августа 2018|200|300Как женить холостяка
      Дата выхода: 30 августа 2018
    • 1114917|Гоголь. Страшная месть|30 августа 2018|200|300Гоголь. Страшная месть
      Дата выхода: 30 августа 2018
    • 939770|Выжившие|30 августа 2018|200|300Выжившие
      Дата выхода: 30 августа 2018
    Вверх