• Игры для PS4
  • Игры для PS3
  • Игры для XBOX360
  • Игры для PC
  • Игры для PS2
  • Игры для PSP
  • Для телефонов
  • Музыка
  • Книги / Журналы
  • Обои
  • Опрос
    Откуда Вы о нас узнали?
      0
    • От знакомых2,1,false,300,full
    • Из социальных сетей2,2,false,300,full
    • Из поисковых систем2,3,false,300,full
    • Другое2,4,false,300,full
    Статистика
    Всего онлайн -
    Гостей -
    Пользователей -
    Короли трекера
    Благодарности () Закрыть
    Страна: СССР
    Производство: Киностудия им. М. Горького

    Жанр:  драма
    Год выпуска: 1961
    Продолжительность: 01:40:31

    Перевод: Не требуется
    Cубтитры: нет
    Оригинальная аудиодорожка: русский

    Режиссер: Татьяна Лиознова

    В ролях:
    Людмила Хитяева, Николай Лебедев (II), Люба Басова, Ольга Наровчатова, Алевтина Румянцева, Юра Ахмадулин, Евгений Ануфриев, Александр Барсов, Владимир Ивашов, Лена Павленко, Наталья Защипина, Миша Дьяков, Саша Галченков, Пётр Константинов, Вера Алтайская, Валентин Зубков, Иван Рыжов, Елена Максимова, М. Львова...

    Описание:
    В небольшом провинциальном городке живут рабочий по имени Евдоким (Николай Лебедев) и его жена - Евдокия (Людмила Хитяева). Своих детей у них нет, они воспитывают приемных. В молодости Евдокия любила Ахмета. Только картина над комодом - восточная красавица - напоминает о прошлом...

    [img]http://picplus.ru/img/1808/09/7c63764a.png[/img]
    [img]http://new-team.org/images/sample_video.png[/img]

    Источник: DVD9 R5
    Качество видео: DVDRip
    Формат видео: AVI

    Видео: 576х432 (4:3), 25 fps, XviD ~ 898 kbps avg, 0.144 bit/pixel
    Аудио: 48 kHz, MP3 2.0, 128 kbps

    MediaInfo

    Общее
    Полное имя                               : Evdokiya.1961.DVDRip-745_[New-team]_by_AVP_Studio.avi
    Формат                                   : AVI
    Формат/Информация                        : Audio Video Interleave
    Размер файла                             : 745 Мбайт
    Продолжительность                        : 1 ч. 40 м.
    Общий поток                              : 1036 Кбит/сек
    Программа кодирования                    : VirtualDubMod 1.5.10.3 | www.virtualdub-fr.org || (build 2550/release)
    Библиотека кодирования                   : VirtualDubMod build 2550/release

    Видео
    Идентификатор                            : 0
    Формат                                   : MPEG-4 Visual
    Профиль формата                          : Advanced Simple@L5
    Настройки формата                        : BVOP1 / Custom Matrix
    Параметр BVOP формата                    : 1
    Параметр QPel формата                    : Нет
    Параметр GMC формата                     : Без точки перехода
    Параметр матрицы формата                 : Выборочная
    Идентификатор кодека                     : XVID
    Идентификатор кодека/Подсказка           : XviD
    Продолжительность                        : 1 ч. 40 м.
    Битрейт                                  : 898 Кбит/сек
    Ширина                                   : 576 пикселей
    Высота                                   : 432 пикселя
    Соотношение сторон                       : 4:3
    Частота кадров                           : 25,000 кадров/сек
    Цветовое пространство                    : YUV
    Субдискретизация насыщенности            : 4:2:0
    Битовая глубина                          : 8 бит
    Тип развёртки                            : Прогрессивная
    Метод сжатия                             : С потерями
    Бит/(Пиксели*Кадры)                      : 0.144
    Размер потока                            : 646 Мбайт (87%)
    Библиотека кодирования                   : XviD 73

    Аудио
    Идентификатор                            : 1
    Формат                                   : MPEG Audio
    Версия формата                           : Version 1
    Профиль формата                          : Layer 3
    Идентификатор кодека                     : 55
    Идентификатор кодека/Подсказка           : MP3
    Продолжительность                        : 1 ч. 40 м.
    Вид битрейта                             : Постоянный
    Битрейт                                  : 128 Кбит/сек
    Каналы                                   : 2 канала
    Частота                                  : 48,0 КГц
    Частота кадров                           : 41,667 кадра/сек (1152 SPF)
    Метод сжатия                             : С потерями
    Размер потока                            : 92,0 Мбайт (12%)
    Выравнивание                             : Соединение по промежуткам
    Продолжительность промежутка             : 40  мс. (1,00 видеокадр)
    Время предзагрузки промежутка            : 504  мс.
    Библиотека кодирования                   : LAME3.99r
    Настройки программы                      : -m s -V 4 -q 2 -lowpass 17 -b 128
    Свернуть


    Похожие раздачи Искать похожие
    Инструкция по скачиванию
     1  Качаем uTorrent версии 2.0 и выше
     2  После установки, жмем выше под постером на ссылку Скачать [MediaGet] или Скачать .torrent
     3  Открываем скачанный файл через соответствующий клиент: MediaGet или uTorrent
     4  Ждем пока подключатся участники
     5  Качаем
    Комментарии о  Евдокия | DVDRip 
    Ближайшее в кино
    Вверх