• Игры для PS4
  • Игры для PS3
  • Игры для XBOX360
  • Игры для PC
  • Игры для PS2
  • Игры для PSP
  • Для телефонов
  • Музыка
  • Книги / Журналы
  • Обои
  • Опрос
    Удобен ли сайт в использовании?
      0
    • Очень удобен, все понятно1,1,false,300,full
    • Удобен1,2,false,300,full
    • Средне1,3,false,300,full
    • Неудобен, трудно ориентироваться1,4,false,300,full
    • Совсем неудобен1,5,false,300,full
    Статистика
    Всего онлайн -
    Гостей -
    Пользователей -
    Короли трекера
    Благодарности () Закрыть
    Страна: СССР
    Производство: Киностудия им. М. Горького

    Жанр:  драма
    Год выпуска: 1961
    Продолжительность: 01:40:31

    Перевод: Не требуется
    Cубтитры: нет
    Оригинальная аудиодорожка: русский

    Режиссер: Татьяна Лиознова

    В ролях:
    Людмила Хитяева, Николай Лебедев (II), Люба Басова, Ольга Наровчатова, Алевтина Румянцева, Юра Ахмадулин, Евгений Ануфриев, Александр Барсов, Владимир Ивашов, Лена Павленко, Наталья Защипина, Миша Дьяков, Саша Галченков, Пётр Константинов, Вера Алтайская, Валентин Зубков, Иван Рыжов, Елена Максимова, М. Львова...

    Описание:
    В небольшом провинциальном городке живут рабочий по имени Евдоким (Николай Лебедев) и его жена - Евдокия (Людмила Хитяева). Своих детей у них нет, они воспитывают приемных. В молодости Евдокия любила Ахмета. Только картина над комодом - восточная красавица - напоминает о прошлом...

    [img]http://picplus.ru/img/1808/09/7c63764a.png[/img]
    [img]http://new-team.org/images/sample_video.png[/img]

    Источник: DVD9 R5
    Качество видео: DVDRip-AVC
    Формат видео: MKV

    Видео: 716->752х564 (4:3), 25 fps, H264 ~ 1628 kbps avg, 0.161 bit/pixel
    Аудио: 48 kHz, Dolby Digital AC3 5.1, 448 kbps

    MediaInfo

    Общее
    Полное имя                               : Evdokiya.1961.DVDRip-AVC_[New-team]_by_AVP_Studio.mkv
    Формат                                   : Matroska
    Версия формата                           : Version 2
    Размер файла                             : 1,46 Гбайт
    Продолжительность                        : 1 ч. 40 м.
    Общий поток                              : 2078 Кбит/сек
    Дата кодирования                         : UTC 2018-08-03 19:06:07
    Программа кодирования                    : mkvmerge v6.1.0 ("Old Devil") built on Mar  4 2013 09:10:42
    Библиотека кодирования                   : libebml v1.3.0 + libmatroska v1.4.0

    Видео
    Идентификатор                            : 1
    Формат                                   : AVC
    Формат/Информация                        : Advanced Video Codec
    Профиль формата                          : High@L4.1
    Настройки формата                        : CABAC / 10 Ref Frames
    Параметр CABAC формата                   : Да
    Параметр RefFrames формата               : 10 кадров
    Идентификатор кодека                     : V_MPEG4/ISO/AVC
    Продолжительность                        : 1 ч. 40 м.
    Битрейт                                  : 1628 Кбит/сек
    Ширина                                   : 716 пикселей
    Высота                                   : 564 пикселя
    Соотношение сторон                       : 4:3
    Режим частоты кадров                     : Постоянный
    Частота кадров                           : 25,000 кадров/сек
    Цветовое пространство                    : YUV
    Субдискретизация насыщенности            : 4:2:0
    Битовая глубина                          : 8 бит
    Тип развёртки                            : Прогрессивная
    Бит/(Пиксели*Кадры)                      : 0.161
    Размер потока                            : 1,12 Гбайт (76%)
    Библиотека кодирования                   : x264 core 130 r2273 b3065e6
    Настройки программы                      : cabac=1 / ref=10 / deblock=1:-2:-1 / analyse=0x3:0x113 / me=umh / subme=10 / psy=1 / psy_rd=1.00:0.00 / mixed_ref=1 / me_range=32 / chroma_me=1 / trellis=2 / 8x8dct=1 / cqm=0 / deadzone=21,11 / fast_pskip=1 / chroma_qp_offset=-2 / threads=6 / lookahead_threads=1 / sliced_threads=0 / nr=0 / decimate=0 / interlaced=0 / bluray_compat=0 / constrained_intra=0 / bframes=8 / b_pyramid=2 / b_adapt=2 / b_bias=0 / direct=3 / weightb=1 / open_gop=0 / weightp=2 / keyint=250 / keyint_min=25 / scenecut=40 / intra_refresh=0 / rc=2pass / mbtree=0 / bitrate=1628 / ratetol=1.0 / qcomp=0.60 / qpmin=0 / qpmax=69 / qpstep=4 / cplxblur=20.0 / qblur=0.5 / ip_ratio=1.40 / pb_ratio=1.30 / aq=1:1.00
    Default                                  : Да
    Forced                                   : Нет

    Аудио
    Идентификатор                            : 2
    Формат                                   : AC-3
    Формат/Информация                        : Audio Coding 3
    Идентификатор кодека                     : A_AC3
    Продолжительность                        : 1 ч. 40 м.
    Вид битрейта                             : Постоянный
    Битрейт                                  : 448 Кбит/сек
    Каналы                                   : 6 каналов
    Расположение каналов                     : Front: L C R, Side: L R, LFE
    Частота                                  : 48,0 КГц
    Частота кадров                           : 31,250 кадров/сек (1536 SPF)
    Битовая глубина                          : 16 бит
    Метод сжатия                             : С потерями
    Размер потока                            : 322 Мбайт (22%)
    Default                                  : Да
    Forced                                   : Нет
    Свернуть


    Похожие раздачи Искать похожие
    Инструкция по скачиванию
     1  Качаем uTorrent версии 2.0 и выше
     2  После установки, жмем выше под постером на ссылку Скачать [MediaGet] или Скачать .torrent
     3  Открываем скачанный файл через соответствующий клиент: MediaGet или uTorrent
     4  Ждем пока подключатся участники
     5  Качаем
    Комментарии о  Евдокия | DVDRip-AVC 
    Ближайшее в кино
    Вверх