• Игры для PS4
  • Игры для PS3
  • Игры для XBOX360
  • Игры для PC
  • Игры для PS2
  • Игры для PSP
  • Для телефонов
  • Музыка
  • Книги / Журналы
  • Обои
  • Опрос
    Откуда Вы о нас узнали?
      0
    • От знакомых2,1,false,300,full
    • Из социальных сетей2,2,false,300,full
    • Из поисковых систем2,3,false,300,full
    • Другое2,4,false,300,full
    Статистика
    Всего онлайн -
    Гостей -
    Пользователей -
    Короли трекера
    Благодарности () Закрыть
    Год выпуска: 2012
    Страна: США
    Жанр:  Драма, криминал, детектив
    Продолжительность: ~ 00:44:00

    Перевод 1: Профессиональный (многоголосый закадровый) Amedia (студия "Пифагор")
    Перевод 2: Профессиональный (многоголосый закадровый) LostFilm
    Перевод 3: Профессиональный (дублированный) Первый канал

    Режиссёр: Майкл Куэста, Джон Коулз, Род Холкомб, Розмари Родригес, Колин Бакси
    В ролях: Джонни Ли Миллер, Люси Лью, Эйдан Куинн, Джон Майкл Хилл, Даллас Робертс, Мэнни Перез, Джонатан Уолкер, Кристен Буш, Крэйг Уолкер, Майкл Натансон, Шерри Х. Арелл, Уорд Хортон, Дженнифер Феррин, Билл Хек, Кэйси Семашко, Роза Арредондо, Рей Лукас, Кен Маркс, Аса Сомерс, Пол Майкл Вэлли, Янси Ариас, Кейтлинн Бэйли, Эндрю Чемберлен, Майкл Кантримэн, Эрин Дилли

    Описание: Новая интерпретация классического произведения Артура Конана Дойла о Шерлоке Холмсе. Но сюжет сериала будет развиваться не по классическому сценарию, главный герой поменяет не только прописку, он переедет из Лондона в Нью-Йорк, но и эпоху, сюжет будет разворачиваться в наше время. Также зрителей ждет еще один сюрприз, теперь у Шерлока будет не помощник в лице Доктора Ватсона, а помощница, роль которой досталось обворожительной Люси Лью. «Элементарно» - современная криминальная драма о дуэте детектива Шерлока Холмса (Джонни Ли Миллер) и доктора Джоан Ватсон (Люси Лью), который решает самые запутанные дела в полицейском департаменте Нью-Йорка.




    Список серий
    01. Пилот | Pilot
    02. Пока ты спала | While You Were Sleeping
    03. Охотник за детьми | Child Predator
    04. Крысиные бега | The Rat Race
    05. Меньшее зло (Lesser Evils
    06. Риск полёта | Flight Risk
    07. Единственный выход | One Way To Get Off
    08. Длинный запал | The Long Fuse
    09. Ты делаешь это ради себя | You Do It For Yourself
    10. Левиафан | The Leviathan
    11. Грязное бельё | Dirty Laundry
    12. M. | M.
    13. Красная команда | The Red Team
    14. Гений дедукции | The Deductionist
    15. Огромная пушка, заряженная наркотиками | A Giant Gun, Filled with Drugs
    16. Детали | Details
    17. Вторая возможность | Possibility Two
    18. Повсюду дежавю | Déjà Vu All Over Again
    19. Снежные ангелы | Snow Angels
    20. Подмена мертвеца | Dead Man"s Switch
    21. Веха истории | A Landmark Story
    22. Управление рисками | Risk Management
    23. Та женщина | The Woman
    24. Героин | HeroineСвернуть


    MediaInfo
    Общее
    Уникальный идентификатор                 : 174929596955829395095035304925284622947 (0x839A370345B9344B3BD7BCDCEE656263)
    Полное имя                               : D:Elementary.S01.1080p.WEB-DL.3xRus.EngElementary.S01E01.Pilot.1080p.WEB-DL.3xRus.Eng.mkv
    Формат                                   : Matroska
    Версия формата                           : Version 4 / Version 2
    Размер файла                             : 4,63 Гбайт
    Продолжительность                        : 45 м. 44 с.
    Режим общего битрейта                    : Переменный
    Общий поток                              : 14,5 Мбит/сек
    Название фильма                          : Пилот
    Дата кодирования                         : UTC 2018-07-31 07:16:19
    Программа кодирования                    : mkvmerge v25.0.0 ("Prog Noir") 32-bit
    Библиотека кодирования                   : libebml v1.3.6 + libmatroska v1.4.9
    Обложка                                  : Yes
    Attachments                              : cover.jpg

    Видео
    Идентификатор                            : 1
    Формат                                   : AVC
    Формат/Информация                        : Advanced Video Codec
    Профиль формата                          : High@L4
    Настройки формата                        : CABAC / 4 Ref Frames
    Параметр CABAC формата                   : Да
    Параметр RefFrames формата               : 4 кадра
    Идентификатор кодека                     : V_MPEG4/ISO/AVC
    Продолжительность                        : 45 м. 44 с.
    Вид битрейта                             : Переменный
    Битрейт                                  : 12,9 Мбит/сек
    Максимальный битрейт                     : 15,0 Мбит/сек
    Ширина                                   : 1920 пикселей
    Высота                                   : 1080 пикселей
    Соотношение сторон                       : 16:9
    Режим частоты кадров                     : Постоянный
    Частота кадров                           : 23,976 (24000/1001) кадра/сек
    Цветовое пространство                    : YUV
    Субдискретизация насыщенности            : 4:2:0
    Битовая глубина                          : 8 бит
    Тип развёртки                            : Прогрессивная
    Бит/(Пиксели*Кадры)                      : 0.259
    Размер потока                            : 4,12 Гбайт (89%)
    Библиотека кодирования                   : x264 core 148 r2623 d5b2374
    Настройки программы                      : cabac=1 / ref=4 / deblock=1:-1:-1 / analyse=0x3:0x133 / me=umh / subme=9 / psy=1 / psy_rd=1.00:0.15 / mixed_ref=1 / me_range=24 / chroma_me=1 / trellis=2 / 8x8dct=1 / cqm=0 / deadzone=21,11 / fast_pskip=1 / chroma_qp_offset=-3 / threads=34 / lookahead_threads=5 / sliced_threads=0 / nr=150 / decimate=1 / interlaced=0 / bluray_compat=0 / constrained_intra=0 / bframes=8 / b_pyramid=2 / b_adapt=2 / b_bias=0 / direct=3 / weightb=1 / open_gop=0 / weightp=2 / keyint=120 / keyint_min=61 / scenecut=0 / intra_refresh=0 / rc_lookahead=120 / rc=crf / mbtree=1 / crf=18.0 / qcomp=0.60 / qpmin=0 / qpmax=69 / qpstep=4 / vbv_maxrate=15000 / vbv_bufsize=31250 / crf_max=0.0 / nal_hrd=vbr / filler=0 / ip_ratio=1.40 / aq=3:1.00
    Язык                                     : English
    Default                                  : Да
    Forced                                   : Нет
    Цветовой диапазон                        : Limited
    Основные цвета                           : BT.709
    Характеристики трансфера                 : BT.709
    Коэффициенты матрицы                     : BT.709

    Аудио #1
    Идентификатор                            : 2
    Формат                                   : AC-3
    Формат/Информация                        : Audio Coding 3
    Идентификатор кодека                     : A_AC3
    Продолжительность                        : 45 м. 44 с.
    Вид битрейта                             : Постоянный
    Битрейт                                  : 384 Кбит/сек
    Каналы                                   : 6 каналов
    Расположение каналов                     : Front: L C R, Side: L R, LFE
    Частота                                  : 48,0 КГц
    Частота кадров                           : 31,250 кадров/сек (1536 SPF)
    Битовая глубина                          : 16 бит
    Метод сжатия                             : С потерями
    Размер потока                            : 126 Мбайт (3%)
    Заголовок                                : AC3 5.1 @ 384 kbps - MVO, Пифагор
    Язык                                     : Russian
    ServiceKind/                       : Complete Main
    Default                                  : Да
    Forced                                   : Нет

    Аудио #2
    Идентификатор                            : 3
    Формат                                   : AC-3
    Формат/Информация                        : Audio Coding 3
    Идентификатор кодека                     : A_AC3
    Продолжительность                        : 45 м. 44 с.
    Вид битрейта                             : Постоянный
    Битрейт                                  : 384 Кбит/сек
    Каналы                                   : 6 каналов
    Расположение каналов                     : Front: L C R, Side: L R, LFE
    Частота                                  : 48,0 КГц
    Частота кадров                           : 31,250 кадров/сек (1536 SPF)
    Битовая глубина                          : 16 бит
    Метод сжатия                             : С потерями
    Размер потока                            : 126 Мбайт (3%)
    Заголовок                                : AC3 5.1 @ 384 kbps - MVO, Lostfilm
    Язык                                     : Russian
    ServiceKind/                       : Complete Main
    Default                                  : Нет
    Forced                                   : Нет

    Аудио #3
    Идентификатор                            : 4
    Формат                                   : AC-3
    Формат/Информация                        : Audio Coding 3
    Идентификатор кодека                     : A_AC3
    Продолжительность                        : 45 м. 44 с.
    Вид битрейта                             : Постоянный
    Битрейт                                  : 192 Кбит/сек
    Каналы                                   : 2 канала
    Расположение каналов                     : Front: L R
    Частота                                  : 48,0 КГц
    Частота кадров                           : 31,250 кадров/сек (1536 SPF)
    Битовая глубина                          : 16 бит
    Метод сжатия                             : С потерями
    Размер потока                            : 62,8 Мбайт (1%)
    Заголовок                                : AC3 2.0 @ 192 kbps - DUB, Первый канал
    Язык                                     : Russian
    ServiceKind/                      : Complete Main
    Default                                  : Нет
    Forced                                   : Нет

    Аудио #4
    Идентификатор                            : 5
    Формат                                   : E-AC-3
    Формат/Информация                        : Enhanced Audio Coding 3
    Идентификатор кодека                     : A_EAC3
    Продолжительность                        : 45 м. 44 с.
    Вид битрейта                             : Постоянный
    Битрейт                                  : 640 Кбит/сек
    Каналы                                   : 6 каналов
    Расположение каналов                     : Front: L C R, Side: L R, LFE
    Частота                                  : 48,0 КГц
    Частота кадров                           : 187,500 кадров/сек (256 SPF)
    Метод сжатия                             : С потерями
    Размер потока                            : 209 Мбайт (4%)
    Заголовок                                : E-AC3 5.1 @ 640 kbps - Original
    Язык                                     : English
    ServiceKind/                       : Complete Main
    Default                                  : Нет
    Forced                                   : Нет

    Текст
    Идентификатор                            : 6
    Формат                                   : UTF-8
    Идентификатор кодека                     : S_TEXT/UTF8
    Идентификатор кодека/Информация          : UTF-8 Plain Text
    Продолжительность                        : 45 м. 1 с.
    Битрейт                                  : 94 бит/сек
    ElementCount                             : 956
    Размер потока                            : 31,1 Кбайт (0%)
    Заголовок                                : Full
    Язык                                     : English
    Default                                  : Нет
    Forced                                   : Нет

    Меню
    00:00:00.000                             : en:Watson goes to meet Holmes
    00:06:25.000                             : en:Title Sequence
    00:06:28.000                             : en:Break
    00:06:30.000                             : en:Holmes and Watson check out the crime scene, Opening Credits
    00:13:10.000                             : en:Break
    00:13:11.000                             : en:Holmes follows up on the evidence surrounding who killed Amy Damper
    00:16:57.000                             : en:Holmes makes some deductions regarding Watson"s disposition towards her job
    00:18:56.000                             : en:Holmes comes across another victim
    00:23:37.000                             : en:Break
    00:23:39.000                             : en:Holmes tries to add things up
    00:28:48.000                             : en:Holmes has a realization
    00:32:35.000                             : en:Holmes confronts Mantlo
    00:35:59.000                             : en:Break
    00:36:01.000                             : en:Watson stumbles upon a bit of information concerning Saldua
    00:40:15.000                             : en:Mantlo meets with Gregson; Gregson"s office
    00:43:26.000                             : en:Holmes is hungry; Holmes" apartment
    00:45:15.000                             : en:End CreditsСвернуть


    Похожие раздачи Искать похожие
    Инструкция по скачиванию
     1  Качаем uTorrent версии 2.0 и выше
     2  После установки, жмем выше под постером на ссылку Скачать [MediaGet] или Скачать .torrent
     3  Открываем скачанный файл через соответствующий клиент: MediaGet или uTorrent
     4  Ждем пока подключатся участники
     5  Качаем
    Комментарии о  Элементарно / Elementary [Сезон 01] | WEB-DL 1080p 
    Ближайшее в кино
    Вверх