• Игры для PS4
  • Игры для PS3
  • Игры для XBOX360
  • Игры для PC
  • Игры для PS2
  • Игры для PSP
  • Для телефонов
  • Музыка
  • Книги/Журналы
  • Обои
  •  
    Опрос
    Удобен ли сайт в использовании?
      0
    • Очень удобен, все понятно1,1,false,300,full
    • Удобен1,2,false,300,full
    • Средне1,3,false,300,full
    • Неудобен, трудно ориентироваться1,4,false,300,full
    • Совсем неудобен1,5,false,300,full
    Статистика
    Загрузка...
    Власть в ночном городе / Power [Сезон 05 | 01-06 серии из 10] | WEBRip 720p
    Статус  Проверено
    В закладки
    Модератор: Max

    Власть в ночном городе / Power [Сезон 05 | 01-06 серии из 10] | WEBRip 720p [Сериалы 2018] скачать торрентом/torrent бесплатно

    Год выхода
    Категории
    Язык
    Закачал
    Аноним | 09 августа в 12ч 53м 15с
    Раздел
    Отзывов
    0
    Раздают: 1 Качают: 4 Скачали: 5 Размер: 7.16 GB
    Инфо о раздаче | Благодарности |
    0/5
    0
    0 5 0
    Поддержи нас — расскажи друзьям!
    Orbitum
    Новый интернет-браузер Быстрее загружает сайты Экономит интернет—трафик Меняет оформление страницы ВК Блокирует всю рекламу на сайтах Загружает торренты как

    µTorrent

    клиент
    Объеденяет все твои чаты из соц. сетей в один Проигрывает твою музыку не заходя во ВКонтакте
    Скачать и многое другое... Подробности на сайте производителя
    Информация о фильме
    Год выхода: 2018
    Наименование: Власть в ночном городе
    Оригинальное наименование: Power
    Страна: США
    Жанр:  драма, криминал
    Режиссер постановщик: Сэнфорд Букставер, Майкл Дж. Бассетт, Роб Харди
    В главных ролях: Лела Лорен, Омари Хардвик, Нэтари Наутон, Джозеф Сикора, Шэйн Джонсон, Фифти Сент, Ротими, Дж.Р. Рамирез, Майкл Рейни мл., Джерри Феррара

    О фильме: Богатый владелец ночного клуба в Нью-Йорке хочет выбиться в городскую элиту и ведет двойную жизнь, торгуя наркотиками.



    Файл
    Качество:  WEBRip 720p
    Видео данные: MKV, 1280x720 (16:9), 23.976 fps, 2254 Кбит/с
    Аудио данные: AC3, 2 ch, 192 Кбит/с
    Перевод: Любительский многоголосый (GreenРай Studio)
    Продолжительность: 6 x 00:56:00

    Медиаинфо
    General
    Unique ID                                : 190613919230556370129470763711007767393 (0x8F66E7CDF378F5BBA39B212CD0673B61)
    Complete name                            : D:ГРИНРАЙPower.S05.WEBRip.720pPower.S05E01.WEBRip.720p.mkv
    Format                                   : Matroska
    Format version                           : Version 2
    File size                                : 1 013 MiB
    Duration                                 : 56 min 44 s
    Overall bit rate                         : 2 495 kb/s
    Encoded date                             : UTC 2018-07-03 04:56:56
    Writing application                      : mkvmerge v7.8.0 ("River Man") 32bit built on Apr  3 2015 12:11:22
    Writing library                          : libebml v1.3.1 + libmatroska v1.4.2

    Video
    ID                                       : 1
    Format                                   : AVC
    Format/Info                              : Advanced Video Codec
    Format profile                           : High@L3.1
    Format settings                          : CABAC / 4 Ref Frames
    Format settings, CABAC                   : Yes
    Format settings, RefFrames               : 4 frames
    Codec ID                                 : V_MPEG4/ISO/AVC
    Duration                                 : 56 min 44 s
    Bit rate                                 : 2 254 kb/s
    Width                                    : 1 280 pixels
    Height                                   : 720 pixels
    Display aspect ratio                     : 16:9
    Frame rate mode                          : Constant
    Frame rate                               : 23.976 FPS
    Color space                              : YUV
    Chroma subsampling                       : 4:2:0
    Bit depth                                : 8 bits
    Scan type                                : Progressive
    Bits/(Pixel*Frame)                       : 0.102
    Stream size                              : 915 MiB (90%)
    Writing library                          : x264 core 146 r2538 121396c
    Encoding settings                        : cabac=1 / ref=1 / deblock=1:0:0 / analyse=0x3:0x113 / me=hex / subme=2 / psy=1 / psy_rd=1.00:0.00 / mixed_ref=0 / me_range=16 / chroma_me=1 / trellis=0 / 8x8dct=1 / cqm=0 / deadzone=21,11 / fast_pskip=1 / chroma_qp_offset=0 / threads=18 / lookahead_threads=5 / sliced_threads=0 / nr=0 / decimate=1 / interlaced=0 / bluray_compat=0 / constrained_intra=0 / bframes=3 / b_pyramid=2 / b_adapt=1 / b_bias=0 / direct=1 / weightb=1 / open_gop=0 / weightp=1 / keyint=250 / keyint_min=23 / scenecut=40 / intra_refresh=0 / rc_lookahead=10 / rc=crf / mbtree=1 / crf=17.0 / qcomp=0.60 / qpmin=0 / qpmax=69 / qpstep=4 / ip_ratio=1.40 / aq=1:1.00
    Default                                  : Yes
    Forced                                   : No

    Audio
    ID                                       : 2
    Format                                   : AC-3
    Format/Info                              : Audio Coding 3
    Codec ID                                 : A_AC3
    Duration                                 : 56 min 44 s
    Bit rate mode                            : Constant
    Bit rate                                 : 192 kb/s
    Channel(s)                               : 2 channels
    Channel positions                        : Front: L R
    Sampling rate                            : 48.0 kHz
    Frame rate                               : 31.250 FPS (1536 SPF)
    Bit depth                                : 16 bits
    Compression mode                         : Lossy
    Stream size                              : 77.9 MiB (8%)
    Service kind                             : Complete Main
    Default                                  : Yes
    Forced                                   : No


    Внимание, имеется  видео и аудио реклама от спонсора показа

    Еще похожие »

    Как скачать?
    1. Качаем UTorrent версии 2.0 и выше отсюда
    2. После установки, жмем на ссылку Скачать торрент.
    3. Открываем его через utorrent.
    4. Ждем пока подключатся участники.
    5. Качаем.


    Комментарии о Власть в ночном городе / Power [Сезон 05 | 01-06 серии из 10] | WEBRip 720p
    Добавлять комментарии могут только зарегистрированные пользователи

    Зарегистрироваться или Войти


    Ближайшее в кино
    • МУЛЬТ в кино. Выпуск №79. Как в сказке! дата выхода 18 августа 2018МУЛЬТ в кино. Выпуск №79. Как в сказке!
      Дата выхода: 18 августа 2018
    • 1007425|Днюха!|23 августа 2018|200|300Днюха!
      Дата выхода: 23 августа 2018
    • 921938|22 мили|23 августа 2018|200|30022 мили
      Дата выхода: 23 августа 2018
    • 934956|Альфа|23 августа 2018|200|300Альфа
      Дата выхода: 23 августа 2018
    • 1023331|Отель «Артемида»|23 августа 2018|200|300Отель «Артемида»
      Дата выхода: 23 августа 2018
    • 1008748|Не волнуйся, он далеко не уйдёт|23 августа 2018|200|300Не волнуйся, он далеко не уйдёт
      Дата выхода: 23 августа 2018
    • 1008240|Последний беспредел|23 августа 2018|200|300Последний беспредел
      Дата выхода: 23 августа 2018
    • 789159|Шоу Мистико|23 августа 2018|200|300Шоу Мистико
      Дата выхода: 23 августа 2018
    • 986638|Принцесса и дракон|23 августа 2018|200|300Принцесса и дракон
      Дата выхода: 23 августа 2018
    • 675470|Голубая игуана|23 августа 2018|200|300Голубая игуана
      Дата выхода: 23 августа 2018
    • 1108921|Вилли и крутые тачки|23 августа 2018|200|300Вилли и крутые тачки
      Дата выхода: 23 августа 2018
    • 380|2001 год: Космическая одиссея|30 августа 2018|200|3002001 год: Космическая одиссея
      Дата выхода: 30 августа 2018
    • 1048294|Как женить холостяка|30 августа 2018|200|300Как женить холостяка
      Дата выхода: 30 августа 2018
    • 1114917|Гоголь. Страшная месть|30 августа 2018|200|300Гоголь. Страшная месть
      Дата выхода: 30 августа 2018
    • 939770|Выжившие|30 августа 2018|200|300Выжившие
      Дата выхода: 30 августа 2018
    Вверх