• Игры для PS4
  • Игры для PS3
  • Игры для XBOX360
  • Игры для PC
  • Игры для PS2
  • Игры для PSP
  • Для телефонов
  • Музыка
  • Книги / Журналы
  • Обои
  • Опрос
    Удобен ли сайт в использовании?
      0
    • Очень удобен, все понятно1,1,false,300,full
    • Удобен1,2,false,300,full
    • Средне1,3,false,300,full
    • Неудобен, трудно ориентироваться1,4,false,300,full
    • Совсем неудобен1,5,false,300,full
    Статистика
    Всего онлайн -
    Гостей -
    Пользователей -
    Короли трекера
    Благодарности () Закрыть
    Информация о фильме
    Название: Профессионал / Сибирь
    Оригинальное название: Siberia
    Год выхода: 2018
    Жанр: Триллер, мелодрама, криминал
    Режиссер: Мэттью М. Росс
    В ролях: Киану Ривз, Молли Рингуолд, Ана Улару, Алекс Паунович, Вероника Феррес, Павел Личникофф, Эшли Ст. Джордж, Юджин Липински, Дмитрий Чеповецкий, Джеймс Александр

    О фильме:
    История американского торговца драгоценными камнями, который едет в Россию для встречи со своим партнером Петром и продажи голубых бриллиантов. Пётр с алмазами пропадает без вести, и герой отправляется вглубь Сибири на его поиски. Он и догадаться не мог, что его ждёт впереди.



    Страна: США
    Студия: Buffalo Gal Pictures, Company Films, Summerstorm Entertainment
    Продолжительность: 01:44:42
    Перевод: Профессиональный многоголосый, Любительский одноголосый

    Файл
    Кодек: H.264
    Качество: BDRemux 1080p
    Видео: MPEG-4 AVC, High@L4.1, 8 bits, 34.7 Mбит/с, 1920x1080, 23.976 кадр/с
    Звук:
    Русский (AC3, 2 ch, 192 Кбит/с) / Профессиональный многоголосый (HDRezka Studio)
    Русский (AC3, 6 ch, 256 Кбит/с) / Любительский одноголосый (BadBajo)
    Английский (DTS-HD MA, 6 ch, 3202 Кбит/с)
    Субтитры: Русские (полные), Английские (хардсаб на русскую речь, SDH)

    Семпл

    MI
    General
    Unique ID                                : 173491130178024263836858315365872121091 (0x82852D2000372D0426A0CDD059013503)
    Complete name                            : C:UsersPublicVideosSample VideosFilmySiberia.2018.1080p.BDRemux.MediaClub.mkv
    Format                                   : Matroska
    Format version                           : Version 4
    File size                                : 28.0 GiB
    Duration                                 : 1 h 44 min
    Overall bit rate mode                    : Variable
    Overall bit rate                         : 38.3 Mb/s
    Encoded date                             : UTC 2018-09-14 15:09:11
    Writing application                      : mkvmerge v25.0.0 ("Prog Noir") 64-bit
    Writing library                          : libebml v1.3.6 + libmatroska v1.4.9
    Cover                                    : Yes
    Attachments                              : cover.jpg

    Video
    ID                                       : 1
    Format                                   : AVC
    Format/Info                              : Advanced Video Codec
    Format profile                           : High@L4.1
    Format settings                          : CABAC / 4 Ref Frames
    Format settings, CABAC                   : Yes
    Format settings, RefFrames               : 4 frames
    Codec ID                                 : V_MPEG4/ISO/AVC
    Duration                                 : 1 h 44 min
    Bit rate mode                            : Variable
    Bit rate                                 : 34.7 Mb/s
    Maximum bit rate                         : 37.0 Mb/s
    Width                                    : 1 920 pixels
    Height                                   : 1 080 pixels
    Display aspect ratio                     : 16:9
    Frame rate mode                          : Constant
    Frame rate                               : 23.976 (24000/1001) FPS
    Color space                              : YUV
    Chroma subsampling                       : 4:2:0
    Bit depth                                : 8 bits
    Scan type                                : Progressive
    Bits/(Pixel*Frame)                       : 0.697
    Stream size                              : 25.4 GiB (90%)
    Title                                    : BDRemux.1080p by Silverok
    Default                                  : Yes
    Forced                                   : No

    Audio #1
    ID                                       : 2
    Format                                   : AC-3
    Format/Info                              : Audio Coding 3
    Commercial name                          : Dolby Digital
    Codec ID                                 : A_AC3
    Duration                                 : 1 h 44 min
    Bit rate mode                            : Constant
    Bit rate                                 : 192 kb/s
    Channel(s)                               : 2 channels
    Channel layout                           : L R
    Sampling rate                            : 48.0 kHz
    Frame rate                               : 31.250 FPS (1536 SPF)
    Bit depth                                : 16 bits
    Compression mode                         : Lossy
    Stream size                              : 144 MiB (1%)
    Title                                    : Профессиональный (многоголосый, закадровый) | [HDRezka Studio]
    Language                                 : Russian
    Service kind                             : Complete Main
    Default                                  : Yes
    Forced                                   : No

    Audio #2
    ID                                       : 3
    Format                                   : AC-3
    Format/Info                              : Audio Coding 3
    Commercial name                          : Dolby Digital
    Codec ID                                 : A_AC3
    Duration                                 : 1 h 44 min
    Bit rate mode                            : Constant
    Bit rate                                 : 256 kb/s
    Channel(s)                               : 6 channels
    Channel layout                           : L R C LFE Ls Rs
    Sampling rate                            : 48.0 kHz
    Frame rate                               : 31.250 FPS (1536 SPF)
    Bit depth                                : 16 bits
    Compression mode                         : Lossy
    Stream size                              : 192 MiB (1%)
    Title                                    : Любительский (одноголосый, закадровый) | [BadBajo]
    Language                                 : Russian
    Service kind                             : Complete Main
    Default                                  : No
    Forced                                   : No

    Audio #3
    ID                                       : 4
    Format                                   : DTS XLL
    Format/Info                              : Digital Theater Systems
    Commercial name                          : DTS-HD Master Audio
    Codec ID                                 : A_DTS
    Duration                                 : 1 h 44 min
    Bit rate mode                            : Variable
    Bit rate                                 : 3 202 kb/s
    Channel(s)                               : 6 channels
    Channel layout                           : C L R Ls Rs LFE
    Sampling rate                            : 48.0 kHz
    Frame rate                               : 93.750 FPS (512 SPF)
    Bit depth                                : 24 bits
    Compression mode                         : Lossless
    Stream size                              : 2.34 GiB (8%)
    Language                                 : English
    Default                                  : No
    Forced                                   : No

    Text #1
    ID                                       : 5
    Format                                   : UTF-8
    Codec ID                                 : S_TEXT/UTF8
    Codec ID/Info                            : UTF-8 Plain Text
    Duration                                 : 1 h 32 min
    Bit rate                                 : 40 b/s
    Count of elements                        : 621
    Stream size                              : 27.7 KiB (0%)
    Title                                    : Full
    Language                                 : Russian
    Default                                  : Yes
    Forced                                   : No

    Text #2
    ID                                       : 6
    Format                                   : UTF-8
    Codec ID                                 : S_TEXT/UTF8
    Codec ID/Info                            : UTF-8 Plain Text
    Duration                                 : 1 h 37 min
    Bit rate                                 : 29 b/s
    Count of elements                        : 807
    Stream size                              : 20.9 KiB (0%)
    Title                                    : SDH
    Language                                 : English
    Default                                  : No
    Forced                                   : No

    Menu
    00:00:00.000                             : en:Chapter 01
    00:09:22.937                             : en:Chapter 02
    00:17:40.350                             : en:Chapter 03
    00:22:02.237                             : en:Chapter 04
    00:29:52.499                             : en:Chapter 05
    00:38:31.225                             : en:Chapter 06
    00:44:18.739                             : en:Chapter 07
    00:51:32.380                             : en:Chapter 08
    00:57:34.409                             : en:Chapter 09
    01:04:05.716                             : en:Chapter 10
    01:13:01.543                             : en:Chapter 11
    01:18:49.558                             : en:Chapter 12
    01:23:58.616                             : en:Chapter 13
    01:28:55.288                             : en:Chapter 14
    01:32:42.306                             : en:Chapter 15
    01:36:17.313                             : en:Chapter 16Свернуть


    Скриншоты
    [screen]http://img11.lostpic.net/2018/09/14/f5c098301d9786671ce7e6299d2d4b8d.png[/screen][screen]http://img11.lostpic.net/2018/09/14/c82498ed46d3e1ba775df759987da31b.png[/screen][screen]http://img11.lostpic.net/2018/09/14/577096f116148e9aa230397860e88109.png[/screen][screen]http://img11.lostpic.net/2018/09/14/3ca04ff59c3fa662eb9f4a1c13168189.png[/screen][screen]http://img11.lostpic.net/2018/09/14/2c3eb0a1e34b46c28b5fe568f75f5205.png[/screen][screen]http://img11.lostpic.net/2018/09/14/d55461f6f7209feff34d41c5f528c384.png[/screen]Свернуть
    Похожие раздачи Искать похожие
    Инструкция по скачиванию
     1  Качаем uTorrent версии 2.0 и выше
     2  После установки, жмем выше под постером на ссылку Скачать [MediaGet] или Скачать .torrent
     3  Открываем скачанный файл через соответствующий клиент: MediaGet или uTorrent
     4  Ждем пока подключатся участники
     5  Качаем
    Комментарии о  Профессионал / Сибирь / Siberia | BDRemux 1080p 
    Ближайшее в кино
    Вверх