• Игры для PS4
  • Игры для PS3
  • Игры для XBOX360
  • Игры для PC
  • Игры для PS2
  • Игры для PSP
  • Для телефонов
  • Музыка
  • Книги / Журналы
  • Обои
  • Опрос
    Откуда Вы о нас узнали?
      0
    • От знакомых2,1,false,300,full
    • Из социальных сетей2,2,false,300,full
    • Из поисковых систем2,3,false,300,full
    • Другое2,4,false,300,full
    Статистика
    Всего онлайн -
    Гостей -
    Пользователей -
    Короли трекера
    
    Благодарности () Закрыть
    Быстрее загружает сайты Экономит интернет—трафик Меняет оформление страницы ВК Блокирует всю рекламу на сайтах Загружает торренты как µTorrent клиент Объеденяет все твои чаты из соц. сетей в один Проигрывает твою музыку не заходя во ВКонтакте
    Новый интернет-браузер
    Orbitum
    Скачать
    и многое другое... Подробности на сайте производителя
    Ловушка времени / Time Trap
    «Escape To The Future!»

    Год выпуска: 2017
    Страна: США
    Производство: Pad Thai Pictures, Filmsmith Production & Management, Rising Phoenix
    Жанр:  Фантастика, боевик, приключения

    Режиссёр: Марк Деннис, Бен Фостер
    В ролях: Эндрю Уилсон, Макс Райт, Рич Скидмор, Рейли МакКлендон, Елена Диаз, Гопал Бидари, Кэссиди Гиффорд, Эстелла Перез, Крис Старджон, Ганс Марреро, Брианна Хоуи, Оливия Драгусевич

    Перевод: Профессиональный (многоголосый, закадровый) | [HDRezka Studio]
    Субтитры: Русские (форс.), Английские (полные)
    Реклама: Отсутствует

    Описание: Группа студентов отправляются в пещеры Техаса, чтобы найти своего любимого преподавателя по археологии, пропавшего без вести некоторое время назад. Ребята уверены, что он нуждается в помощи, а раз спасатели не смогут оперативно выполнить эту работу, то у них не остается выбора. Студенты готовы рисковать собственными жизнями ради спасения своего преподавателя. Кроме того, их интересует его необычная теория, которая гласит, что в этих местах может находиться истинный источник молодости.



    Качество: HDRip-AVC | BDRip 1080p | Time Trap 2017 1080p BluRay DTS x264-PFa
    Продолжительность: 01:27:32

    Формат: MKV
    Видео кодек: MPEG-4 AVC
    Аудио кодек: AC3
    Видео: 1024x436 (2.35:1), 23,976 fps, x264 ~1 865 kbps avg, 0.174 bit/pixel
    Аудио #1: 48 kHz, AC3 Dolby Digital, 2 (L,R) ch, ~192.00 kbps avg | RUS (HDRezka Studio)
    Аудио #2: 48 kHz, AC3 Dolby Digital, 3/2 (L,C,R,l,r) + LFE ch, ~448.00 kbps avg | ENG

    Дата премьеры (мир): 19 мая 2017
    Дата премьеры (РФ):

    MediaInfo

    Общее
    Уникальный идентификатор                 : 264037905796724964986983899682583311890 (0xC6A3D9D6124992C0CB0F201460A77612)
    Полное имя                               : F:OlLanDGroupTime.Trap.2017.BDRip(AVC).OlLanDGroup.mkv
    Формат                                   : Matroska
    Версия формата                           : Version 4 / Version 2
    Размер файла                             : 1,53 Гбайт
    Продолжительность                        : 1 ч. 27 м.
    Общий поток                              : 2506 Кбит/сек
    Название фильма                          : Time.Trap.2017    #TorpedoUK#
    Дата кодирования                         : UTC 2018-09-26 03:45:53
    Программа кодирования                    : mkvmerge v25.0.0 ("Prog Noir") 64-bit
    Библиотека кодирования                   : libebml v1.3.6 + libmatroska v1.4.9

    Видео
    Идентификатор                            : 1
    Формат                                   : AVC
    Формат/Информация                        : Advanced Video Codec
    Профиль формата                          : High@L4.1
    Параметр CABAC формата                   : Да
    Параметр ReFrames формата                : 10 кадров
    Идентификатор кодека                     : V_MPEG4/ISO/AVC
    Продолжительность                        : 1 ч. 27 м.
    Битрейт                                  : 1865 Кбит/сек
    Ширина                                   : 1024 пикселя
    Высота                                   : 436 пикселей
    Соотношение сторон                       : 2,35:1
    Режим частоты кадров                     : Постоянный
    Частота кадров                           : 23,976 (24000/1001) кадра/сек
    Цветовое пространство                    : YUV
    Субдискретизация насыщенности            : 4:2:0
    Битовая глубина                          : 8 бит
    Тип развёртки                            : Прогрессивная
    Бит/(Пиксели*Кадры)                      : 0.174
    Размер потока                            : 1,14 Гбайт (74%)
    Библиотека кодирования                   : x264 core 146 r2538 121396c
    Настройки программы                      : cabac=1 / ref=10 / deblock=1:-3:-3 / analyse=0x3:0x113 / me=umh / subme=11 / psy=1 / psy_rd=0.98:0.04 / mixed_ref=1 / me_range=48 / chroma_me=1 / trellis=2 / 8x8dct=1 / cqm=0 / deadzone=21,11 / fast_pskip=1 / chroma_qp_offset=-3 / threads=6 / lookahead_threads=1 / sliced_threads=0 / nr=0 / decimate=1 / interlaced=0 / bluray_compat=0 / constrained_intra=0 / bframes=10 / b_pyramid=2 / b_adapt=2 / b_bias=0 / direct=3 / weightb=1 / open_gop=0 / weightp=2 / keyint=240 / keyint_min=23 / scenecut=40 / intra_refresh=0 / rc_lookahead=40 / rc=2pass / mbtree=0 / bitrate=1865 / ratetol=1.0 / qcomp=0.60 / qpmin=0 / qpmax=69 / qpstep=4 / cplxblur=20.0 / qblur=0.5 / vbv_maxrate=50000 / vbv_bufsize=62500 / nal_hrd=none / filler=0 / ip_ratio=1.40 / pb_ratio=1.30 / aq=1:1.00
    Язык                                     : English
    Default                                  : Да
    Forced                                   : Нет

    Аудио #1
    Идентификатор                            : 2
    Формат                                   : AC-3
    Формат/Информация                        : Audio Coding 3
    Расширение режима                        : CM (complete main)
    Параметр Endianness формата              : Big
    Идентификатор кодека                     : A_AC3
    Продолжительность                        : 1 ч. 27 м.
    Вид битрейта                             : Постоянный
    Битрейт                                  : 192 Кбит/сек
    Каналы                                   : 2 канала
    Расположение каналов                     : Front: L R
    Частота                                  : 48,0 КГц
    Частота кадров                           : 31,250 кадров/сек (1536 spf)
    Битовая глубина                          : 16 бит
    Метод сжатия                             : С потерями
    Размер потока                            : 120 Мбайт (8%)
    Заголовок                                : MVO [HDRezka Studio]
    Язык                                     : Russian
    Default                                  : Да
    Forced                                   : Нет

    Аудио #2
    Идентификатор                            : 3
    Формат                                   : AC-3
    Формат/Информация                        : Audio Coding 3
    Расширение режима                        : CM (complete main)
    Параметр Endianness формата              : Big
    Идентификатор кодека                     : A_AC3
    Продолжительность                        : 1 ч. 27 м.
    Вид битрейта                             : Постоянный
    Битрейт                                  : 448 Кбит/сек
    Каналы                                   : 6 каналов
    Расположение каналов                     : Front: L C R, Side: L R, LFE
    Частота                                  : 48,0 КГц
    Частота кадров                           : 31,250 кадров/сек (1536 spf)
    Битовая глубина                          : 16 бит
    Метод сжатия                             : С потерями
    Размер потока                            : 281 Мбайт (18%)
    Заголовок                                : [Original]
    Язык                                     : English
    Default                                  : Нет
    Forced                                   : Нет

    Текст #1
    Идентификатор                            : 4
    Формат                                   : UTF-8
    Идентификатор кодека                     : S_TEXT/UTF8
    Идентификатор кодека/Информация          : UTF-8 Plain Text
    Продолжительность                        : 1 ч. 24 м.
    Битрейт                                  : 1 бит/сек
    Count of elements                        : 15
    Размер потока                            : 734 байт (0%)
    Заголовок                                : Forced
    Язык                                     : Russian
    Default                                  : Да
    Forced                                   : Нет

    Текст #2
    Идентификатор                            : 5
    Формат                                   : UTF-8
    Идентификатор кодека                     : S_TEXT/UTF8
    Идентификатор кодека/Информация          : UTF-8 Plain Text
    Продолжительность                        : 1 ч. 20 м.
    Битрейт                                  : 61 бит/сек
    Count of elements                        : 1306
    Размер потока                            : 36,4 Кбайт (0%)
    Заголовок                                : Full
    Язык                                     : English
    Default                                  : Нет
    Forced                                   : Нет
    Свернуть


    Похожие раздачи Искать похожие
    Инструкция по скачиванию
     1  Качаем uTorrent версии 2.0 и выше
     2  После установки, жмем выше под постером на ссылку Скачать [MediaGet] или Скачать .torrent
     3  Открываем скачанный файл через соответствующий клиент: MediaGet или uTorrent
     4  Ждем пока подключатся участники
     5  Качаем
    Комментарии о  Ловушка времени / Time Trap | HDRip-AVC 
    Ближайшее в кино
    Вверх