• Игры для PS4
  • Игры для PS3
  • Игры для XBOX360
  • Игры для PC
  • Игры для PS2
  • Игры для PSP
  • Для телефонов
  • Музыка
  • Книги / Журналы
  • Обои
  • Опрос
    Удобен ли сайт в использовании?
      0
    • Очень удобен, все понятно1,1,false,300,full
    • Удобен1,2,false,300,full
    • Средне1,3,false,300,full
    • Неудобен, трудно ориентироваться1,4,false,300,full
    • Совсем неудобен1,5,false,300,full
    Статистика
    Всего онлайн -
    Гостей -
    Пользователей -
    Короли трекера
    Благодарности () Закрыть
    Информация о фильме
    Название: Это чертово сердце
    Оригинальное название: Dieses bescheuerte Herz
    Год выхода: 2017
    Жанр: Драма, комедия
    Страна: Германия
    Перевод: Дублированный | iTunes
    Продолжительность: 01:46:21
    Режиссер: Марк Ротемунд
    В ролях: Элиас ЭмБарек, Филип Шварц, Надина Вриц, Уве Пройсс, Лиза Биттер, Юрген Тонкель, Бруно Саутер, Лу Бишофф, Себастьян Герольд, Ким Гиршнер и др.

    О фильме: Единственное занятие Ленни — бесконечные вечеринки с друзьями. Он привык, что любой его каприз оплачивает отец. В одном городе с ним живет 15-летний Дэвид, который почти всё своё время проводит дома. У Дэвида врожденный порок сердца и прогнозы врачей не слишком утешительны. Отец Ленни, устав от безделья сына, поручает тому заботу о Дэвиде. Неожиданно эти двое становятся друг для друга незаменимыми. Ленни помогает парню ощутить вкус к жизни и осуществить мечты, а Дэвид, в свою очередь, дает ему возможность почувствовать ответственность за свою жизнь и жизнь тех, кто рядом.

    [img]http://img12.lostpic.net/2018/03/07/3b8e4af59513263f656f448f8991ff0d.th.jpg[/img]

    Файл
    Формат: AVI
    Качество: BDRip
    Видео: Xvid 73, 720x304, ~1574 kbps, 24,000 fps
    Звук: русский, AC3, 5.1 ch, 48 kHz, 384 kbps | iTunes
    Субтитры: нет



    MI
    General
    Полное имя                               : F:TorrentEtoChertovoSerdceBDRip.avi
    Формат                                   : AVI
    Формат/Информация                        : Audio Video Interleave
    Профиль формата                          : OpenDML
    Размер файла                             : 1.46 GiB
    Продолжительность                        : 1 h 46 min
    Общий поток                              : 1 970 kb/s
    Программа кодирования                    : XviD4PSP 6.0 / 54.27.101

    Video
    Идентификатор                            : 0
    Формат                                   : MPEG-4 Visual
    Профиль формата                          : Advanced Simple@L5
    Настройки формата                        : BVOP2 / Custom Matrix
    Параметр BVOP формата                    : 2
    Параметр QPel формата                    : No
    Параметр GMC формата                     : No warppoints
    Параметр матрицы формата                 : Custom
    Идентификатор кодека                     : XVID
    Идентификатор кодека/Подсказка           : XviD
    Продолжительность                        : 1 h 46 min
    Битрейт                                  : 1 574 kb/s
    Ширина                                   : 720 pixels
    Высота                                   : 304 pixels
    Соотношение сторон                       : 2.35:1
    Частота кадров                           : 24.000 FPS
    Цветовое пространство                    : YUV
    Субдискретизация насыщенности            : 4:2:0
    Битовая глубина                          : 8 bits
    Тип развёртки                            : Progressive
    Метод сжатия                             : Lossy
    Бит/(Пиксели*Кадры)                      : 0.300
    Размер потока                            : 1.17 GiB (80%)
    Библиотека кодирования                   : XviD 73

    Audio
    Идентификатор                            : 1
    Формат                                   : AC-3
    Формат/Информация                        : Audio Coding 3
    Идентификатор кодека                     : 2000
    Продолжительность                        : 1 h 46 min
    Вид битрейта                             : Constant
    Битрейт                                  : 384 kb/s
    Каналы                                   : 6 channels
    Расположение каналов                     : Front: L C R, Side: L R, LFE
    Частота                                  : 48.0 kHz
    Частота кадров                           : 31.250 FPS (1536 SPF)
    Битовая глубина                          : 16 bits
    Метод сжатия                             : Lossy
    Размер потока                            : 292 MiB (19%)
    Выравнивание                             : Aligned on interleaves
    Продолжительность промежутка             : 32  ms (0.77 video frame)

    Свернуть


    Скриншоты
    [screen]http://img11.lostpic.net/2018/10/04/c4d7062337de98acee2f08a33ff50a9f.png[/screen][screen]http://img11.lostpic.net/2018/10/04/db24c06d3232d98251e57bb5c8e7d875.png[/screen][screen]http://img11.lostpic.net/2018/10/04/e51f18444931d758d4f7584cea6654c3.png[/screen][screen]http://img11.lostpic.net/2018/10/04/672f0ef07307c6f7f329048bfeff4e13.png[/screen][screen]http://img11.lostpic.net/2018/10/04/d0a89b1738a6acc4b725a16e720b99e2.png[/screen]
    [screen]http://img11.lostpic.net/2018/10/04/b65d4c14299b96113d0b7454fafbfd00.png[/screen][screen]http://img11.lostpic.net/2018/10/04/00ac506df989569551123ccf667fc8dc.png[/screen][screen]http://img11.lostpic.net/2018/10/04/00ac506df989569551123ccf667fc8dc.png[/screen][screen]http://img11.lostpic.net/2018/10/04/7ad0be07f29d183567203d1942292d9f.png[/screen][screen]http://img11.lostpic.net/2018/10/04/672f0ef07307c6f7f329048bfeff4e13.png[/screen]
    [screen]http://img11.lostpic.net/2018/10/04/6933904d32a210fccf4bf8ae8896b70c.png[/screen][screen]http://img11.lostpic.net/2018/10/04/a2ba91f12a1d614235ac9a62195a181b.png[/screen][screen]http://img11.lostpic.net/2018/10/04/32364ee1d99b7fd22e2b06b5efe2569a.png[/screen]Свернуть
    Похожие раздачи Искать похожие
    Инструкция по скачиванию
     1  Качаем uTorrent версии 2.0 и выше
     2  После установки, жмем выше под постером на ссылку Скачать [MediaGet] или Скачать .torrent
     3  Открываем скачанный файл через соответствующий клиент: MediaGet или uTorrent
     4  Ждем пока подключатся участники
     5  Качаем
    Комментарии о  Это чертово сердце / Dieses bescheuerte Herz | BDRip 
    Ближайшее в кино
    Вверх