• Игры для PS4
  • Игры для PS3
  • Игры для XBOX360
  • Игры для PC
  • Игры для PS2
  • Игры для PSP
  • Для телефонов
  • Музыка
  • Книги / Журналы
  • Обои
  • Опрос
    Откуда Вы о нас узнали?
      0
    • От знакомых2,1,false,300,full
    • Из социальных сетей2,2,false,300,full
    • Из поисковых систем2,3,false,300,full
    • Другое2,4,false,300,full
    Статистика
    Всего онлайн -
    Гостей -
    Пользователей -
    Короли трекера
    Благодарности () Закрыть
    Информация о фильме
    Название: Капитан Крюк
    Оригинальное название: Hook
    Год выхода: 1991
    Жанр: Фэнтези, приключения, семейный, экранизация
    Режиссер: Стивен Спилберг
    В ролях: Дастин Хоффман, Робин Уильямс, Джулия Робертс, Боб Хоскинс, Мэгги Смит, Кэролайн Гудолл, Чарли Корсмо, Эмбер Скотт, Лорел Кронин, Фил Коллинз, Артур Мэлет, Айзиа Робинсон, Джасен Фишер, Данте Баско, Раушан Хэммонд, Джеймс Мадио, Томас Тулак

    О фильме:
    Питер Пэн стал взрослым и перестал быть Питером Пэном. Теперь ему сорок лет, у него другое имя, семья и серьезная работа. Не осталось и следа от чудесного ребенка, который когда-то умел летать… Но старые враги не забыли мальчика. Капитан с острым стальным крюком вместо руки снова бросает вызов своему противнику, похитив его детей. Питер отправляется вслед за ним в волшебную страну, но чтобы победить там, где живут русалки, феи и однорукие пираты, ему придется снова научиться летать. Экранизация по произведению: Дж. М. Барри.



    Страна: США
    Студия: Amblin Entertainment, TriStar Pictures
    Продолжительность: 02:21:45
    Перевод: Дублированный, профессиональный многоголосый, авторский

    Файл
    Кодек: H.265
    Качество: BDRemux 2160p
    Видео: HEVC HDR, 55.5 Mбит/с, 3840x2160, 23.976 кадр/с
    Звук:
    Русский (AC3, 6 ch, 640 Кбит/с) / Профессиональный многоголосый (Blu-Ray EUR)
    Русский (AC3, 2 ch, 256 Кбит/с) / Дублированный (Варус Видео)
    Русский (AC3, 6 ch, 448 Кбит/с) / Профессиональный многоголосый (Супербит)
    Русский (AC3, 6 ch, 640 Кбит/с) / Авторский (Юрий Живов)
    Русский (AC3, 2 ch, 192 Кбит/с) / Авторский (Владимир Сонькин)
    Русский (DTS, 6 ch, 1509 Кбит/с) / Авторский (Вартан Дохалов)
    Английский (TrueHD+Atmos, 8 ch, 4410 Кбит/с)
    Английский (AC3, 6 ch, 640 Кбит/с)
    Субтитры: Русские, английские

    Семпл

    MI
    General
    Unique ID                                : 249112459317832650194559067833586026754 (0xBB6950828C7BFF8DF034CF6EEE460902)
    Complete name                            : C:UsersPublicVideosSample VideosFilmyHook.1991.BDRemux.2160p.HDR.MediaClub.mkv
    Format                                   : Matroska
    Format version                           : Version 4
    File size                                : 63.7 GiB
    Duration                                 : 2 h 21 min
    Overall bit rate mode                    : Variable
    Overall bit rate                         : 64.3 Mb/s
    Encoded date                             : UTC 2018-10-07 09:53:57
    Writing application                      : mkvmerge v25.0.0 ("Prog Noir") 64-bit
    Writing library                          : libebml v1.3.6 + libmatroska v1.4.9
    Cover                                    : Yes
    Attachments                              : cover.jpg

    Video
    ID                                       : 1
    Format                                   : HEVC
    Format/Info                              : High Efficiency Video Coding
    Commercial name                          : HDR10
    Format profile                           : Main 10@L5.1@High
    Codec ID                                 : V_MPEGH/ISO/HEVC
    Duration                                 : 2 h 21 min
    Bit rate                                 : 55.5 Mb/s
    Width                                    : 3 840 pixels
    Height                                   : 2 160 pixels
    Display aspect ratio                     : 16:9
    Frame rate mode                          : Constant
    Frame rate                               : 23.976 (24000/1001) FPS
    Color space                              : YUV
    Chroma subsampling                       : 4:2:0 (Type 2)
    Bit depth                                : 10 bits
    Bits/(Pixel*Frame)                       : 0.279
    Stream size                              : 55.0 GiB (86%)
    Title                                    : BDRemux.2160p.HDR by Silverok
    Default                                  : Yes
    Forced                                   : No
    Color range                              : Limited
    Color primaries                          : BT.2020
    Transfer characteristics                 : PQ
    Matrix coefficients                      : BT.2020 non-constant
    Mastering display color primaries        : Display P3
    Mastering display luminance              : min: 0.0050 cd/m2, max: 4000 cd/m2
    Maximum Content Light Level              : 10000 cd/m2
    Maximum Frame-Average Light Level        : 944 cd/m2

    Audio #1
    ID                                       : 2
    Format                                   : AC-3
    Format/Info                              : Audio Coding 3
    Commercial name                          : Dolby Digital
    Codec ID                                 : A_AC3
    Duration                                 : 2 h 21 min
    Bit rate mode                            : Constant
    Bit rate                                 : 640 kb/s
    Channel(s)                               : 6 channels
    Channel layout                           : L R C LFE Ls Rs
    Sampling rate                            : 48.0 kHz
    Frame rate                               : 31.250 FPS (1536 SPF)
    Bit depth                                : 16 bits
    Compression mode                         : Lossy
    Stream size                              : 649 MiB (1%)
    Title                                    : Профессиональный многоголосый (Blu-Ray EUR)
    Language                                 : Russian
    Service kind                             : Complete Main
    Default                                  : Yes
    Forced                                   : No

    Audio #2
    ID                                       : 3
    Format                                   : AC-3
    Format/Info                              : Audio Coding 3
    Commercial name                          : Dolby Digital
    Codec ID                                 : A_AC3
    Duration                                 : 2 h 21 min
    Bit rate mode                            : Constant
    Bit rate                                 : 256 kb/s
    Channel(s)                               : 2 channels
    Channel layout                           : L R
    Sampling rate                            : 48.0 kHz
    Frame rate                               : 31.250 FPS (1536 SPF)
    Bit depth                                : 16 bits
    Compression mode                         : Lossy
    Stream size                              : 260 MiB (0%)
    Title                                    : Профессиональный (полное дублирование) Варус Видео
    Language                                 : Russian
    Service kind                             : Complete Main
    Default                                  : No
    Forced                                   : No

    Audio #3
    ID                                       : 4
    Format                                   : AC-3
    Format/Info                              : Audio Coding 3
    Commercial name                          : Dolby Digital
    Codec ID                                 : A_AC3
    Duration                                 : 2 h 21 min
    Bit rate mode                            : Constant
    Bit rate                                 : 448 kb/s
    Channel(s)                               : 6 channels
    Channel layout                           : L R C LFE Ls Rs
    Sampling rate                            : 48.0 kHz
    Frame rate                               : 31.250 FPS (1536 SPF)
    Bit depth                                : 16 bits
    Compression mode                         : Lossy
    Stream size                              : 454 MiB (1%)
    Title                                    : Профессиональный многоголосый (Супербит)
    Language                                 : Russian
    Service kind                             : Complete Main
    Default                                  : No
    Forced                                   : No

    Audio #4
    ID                                       : 5
    Format                                   : AC-3
    Format/Info                              : Audio Coding 3
    Commercial name                          : Dolby Digital
    Codec ID                                 : A_AC3
    Duration                                 : 2 h 21 min
    Bit rate mode                            : Constant
    Bit rate                                 : 640 kb/s
    Channel(s)                               : 6 channels
    Channel layout                           : L R C LFE Ls Rs
    Sampling rate                            : 48.0 kHz
    Frame rate                               : 31.250 FPS (1536 SPF)
    Bit depth                                : 16 bits
    Compression mode                         : Lossy
    Stream size                              : 649 MiB (1%)
    Title                                    : Авторский (Юрий Живов)
    Language                                 : Russian
    Service kind                             : Complete Main
    Default                                  : No
    Forced                                   : No

    Audio #5
    ID                                       : 6
    Format                                   : AC-3
    Format/Info                              : Audio Coding 3
    Commercial name                          : Dolby Digital
    Codec ID                                 : A_AC3
    Duration                                 : 2 h 21 min
    Bit rate mode                            : Constant
    Bit rate                                 : 192 kb/s
    Channel(s)                               : 2 channels
    Channel layout                           : L R
    Sampling rate                            : 48.0 kHz
    Frame rate                               : 31.250 FPS (1536 SPF)
    Bit depth                                : 16 bits
    Compression mode                         : Lossy
    Stream size                              : 195 MiB (0%)
    Title                                    : Авторский (Владимир Сонькин)
    Language                                 : Russian
    Service kind                             : Complete Main
    Default                                  : No
    Forced                                   : No

    Audio #6
    ID                                       : 7
    Format                                   : DTS
    Format/Info                              : Digital Theater Systems
    Codec ID                                 : A_DTS
    Duration                                 : 2 h 21 min
    Bit rate mode                            : Constant
    Bit rate                                 : 1 509 kb/s
    Channel(s)                               : 6 channels
    Channel layout                           : C L R Ls Rs LFE
    Sampling rate                            : 48.0 kHz
    Frame rate                               : 93.750 FPS (512 SPF)
    Bit depth                                : 16 bits
    Compression mode                         : Lossy
    Stream size                              : 1.49 GiB (2%)
    Title                                    : Авторский (Вартан Дохалов)
    Language                                 : Russian
    Default                                  : No
    Forced                                   : No

    Audio #7
    ID                                       : 8
    Format                                   : MLP FBA 16-ch
    Format/Info                              : Meridian Lossless Packing FBA with 16-channel presentation
    Commercial name                          : Dolby TrueHD with Dolby Atmos
    Codec ID                                 : A_TRUEHD
    Duration                                 : 2 h 21 min
    Bit rate mode                            : Variable
    Bit rate                                 : 4 410 kb/s
    Maximum bit rate                         : 7 185 kb/s
    Channel(s)                               : 8 channels
    Channel layout                           : L R C LFE Ls Rs Lb Rb
    Sampling rate                            : 48.0 kHz
    Frame rate                               : 1 200.000 FPS (40 SPF)
    Compression mode                         : Lossless
    Stream size                              : 4.37 GiB (7%)
    Language                                 : English
    Default                                  : No
    Forced                                   : No
    Number of dynamic objects                : 11
    Bed channel count                        : 1 channel
    Bed channel configuration                : LFE

    Audio #8
    ID                                       : 9
    Format                                   : AC-3
    Format/Info                              : Audio Coding 3
    Commercial name                          : Dolby Digital
    Codec ID                                 : A_AC3
    Duration                                 : 2 h 21 min
    Bit rate mode                            : Constant
    Bit rate                                 : 640 kb/s
    Channel(s)                               : 6 channels
    Channel layout                           : L R C LFE Ls Rs
    Sampling rate                            : 48.0 kHz
    Frame rate                               : 31.250 FPS (1536 SPF)
    Bit depth                                : 16 bits
    Compression mode                         : Lossy
    Stream size                              : 649 MiB (1%)
    Language                                 : English
    Service kind                             : Complete Main
    Default                                  : No
    Forced                                   : No

    Text #1
    ID                                       : 10
    Format                                   : UTF-8
    Codec ID                                 : S_TEXT/UTF8
    Codec ID/Info                            : UTF-8 Plain Text
    Duration                                 : 2 h 14 min
    Bit rate                                 : 73 b/s
    Count of elements                        : 1490
    Stream size                              : 72.5 KiB (0%)
    Title                                    : Full
    Language                                 : Russian
    Default                                  : Yes
    Forced                                   : No

    Text #2
    ID                                       : 11
    Format                                   : UTF-8
    Codec ID                                 : S_TEXT/UTF8
    Codec ID/Info                            : UTF-8 Plain Text
    Duration                                 : 2 h 14 min
    Bit rate                                 : 47 b/s
    Count of elements                        : 1545
    Stream size                              : 46.9 KiB (0%)
    Title                                    : Full
    Language                                 : English
    Default                                  : No
    Forced                                   : No

    Menu
    00:00:00.000                             : en:00:00:00.000
    00:08:05.944                             : en:00:08:05.944
    00:16:44.378                             : en:00:16:44.378
    00:23:37.625                             : en:00:23:37.625
    00:30:14.396                             : en:00:30:14.396
    00:35:50.357                             : en:00:35:50.357
    00:48:17.603                             : en:00:48:17.603
    00:58:14.199                             : en:00:58:14.199
    01:06:16.973                             : en:01:06:16.973
    01:11:26.532                             : en:01:11:26.532
    01:22:03.544                             : en:01:22:03.544
    01:31:46.000                             : en:01:31:46.000
    01:40:26.020                             : en:01:40:26.020
    01:47:53.592                             : en:01:47:53.592
    01:56:29.858                             : en:01:56:29.858
    02:08:10.057                             : en:02:08:10.057Свернуть


    Скриншоты
    [screen]http://img11.lostpic.net/2018/10/07/48a08645be68d3197fdb44fe36507571.png[/screen][screen]http://img11.lostpic.net/2018/10/07/35fbf1f5206bd8f7eab49dca407cf186.png[/screen][screen]http://img11.lostpic.net/2018/10/07/781e5c57f51bc1e3c96bd35cb905f426.png[/screen][screen]http://img11.lostpic.net/2018/10/07/62baa7b82845ccd60e704796f8515e8a.png[/screen][screen]http://img11.lostpic.net/2018/10/07/c0a83d55669ef20556a4a1756a8aebb6.png[/screen][screen]http://img11.lostpic.net/2018/10/07/8dc30d516286c82cd265e003faaab2e9.png[/screen][screen]http://img11.lostpic.net/2018/10/07/2932c5fe6519bf66e79b31a5cfb59bce.png[/screen][screen]http://img11.lostpic.net/2018/10/07/3c382668b42949bc9fb10c056047522f.png[/screen]Свернуть
    Похожие раздачи Искать похожие
    Инструкция по скачиванию
     1  Качаем uTorrent версии 2.0 и выше
     2  После установки, жмем выше под постером на ссылку Скачать [MediaGet] или Скачать .torrent
     3  Открываем скачанный файл через соответствующий клиент: MediaGet или uTorrent
     4  Ждем пока подключатся участники
     5  Качаем
    Комментарии о  Капитан Крюк / Hook | BDRemux 
    Ближайшее в кино
    Вверх