• Игры для PS4
  • Игры для PS3
  • Игры для XBOX360
  • Игры для PC
  • Игры для PS2
  • Игры для PSP
  • Для телефонов
  • Музыка
  • Книги / Журналы
  • Обои
  • Опрос
    Удобен ли сайт в использовании?
      0
    • Очень удобен, все понятно1,1,false,300,full
    • Удобен1,2,false,300,full
    • Средне1,3,false,300,full
    • Неудобен, трудно ориентироваться1,4,false,300,full
    • Совсем неудобен1,5,false,300,full
    Статистика
    Всего онлайн -
    Гостей -
    Пользователей -
    Короли трекера
    
    Благодарности () Закрыть
    Быстрее загружает сайты Экономит интернет—трафик Меняет оформление страницы ВК Блокирует всю рекламу на сайтах Загружает торренты как µTorrent клиент Объеденяет все твои чаты из соц. сетей в один Проигрывает твою музыку не заходя во ВКонтакте
    Новый интернет-браузер
    Orbitum
    Скачать
    и многое другое... Подробности на сайте производителя
    Год выпуска: 2017
    Страна: США
    Жанр:  Комедия
    Продолжительность: ~ 00:22:04

    Перевод: Профессиональный (дублированный) АРК-ТВ

    Режиссер: Бет МакКарти-Миллер, Клер Скэнлон, Пэймэн Бенц
    В ролях: Брига Хилэн, Адам Кэмпбелл, Андреа Мартин, Николь Ричи, Оратио Санс, Шон МакКинни, Стюарт Скелтон, С.Дж. Баркус и др.

    Описание: Однажды Кэти, продюсер службы новостей, узнает, что на телевизионный канал, где она работает, устроилась интерном ее властная мать Кэрол. Героиня в ужасе от перспективы ежедневно работать бок о бок с человеком, с которым у нее весьма непростые отношения. Однако у Кэрол есть особая миссия — она намерена во что бы то ни стало помочь Кэти получить заслуженное профессиональное признание.



    Качество: WEB-DL 1080p (Netflix)
    Контейнер: MKV
    Видео: AVC, 1920x1080 (16:9), 23.976 fps, 4500 Kbps
    Аудио 1: E-AC3, 48 KHz, 6 ch, 640 kbps (АРК-ТВ)
    Аудио 2: E-AC3, 48 KHz, 6 ch, 640 kbps (Original)
    Субтитры: Русские (Forced; Full), английские (SDH)
    Реклама: Отсутствует

    MediaInfo
    Complete name               : D:Great.News.S01.1080p.NFGreat.News.S01E01.1080p.NF.mkv
    Format                      : Matroska
    Format version              : Version 4 / Version 2
    File size                   : 897 MiB
    Duration                    : 22 min 14 s
    Overall bit rate mode       : Variable
    Overall bit rate            : 5 640 kb/s
    Encoded date                : UTC 2018-10-07 14:00:00
    Writing application         : mkvmerge v9.9.0 ("Pick Up") 32bit
    Writing library             : libebml v1.3.4 + libmatroska v1.4.5

    Video
    ID                          : 1
    Format                      : AVC
    Format/Info                 : Advanced Video Codec
    Format profile              : Main@L4
    Format settings             : CABAC / 3 Ref Frames
    Format settings, CABAC      : Yes
    Format settings, RefFrames  : 3 frames
    Codec ID                    : V_MPEG4/ISO/AVC
    Duration                    : 22 min 11 s
    Bit rate mode               : Variable
    Bit rate                    : 4 420 kb/s
    Maximum bit rate            : 6 630 kb/s
    Width                       : 1 920 pixels
    Height                      : 1 080 pixels
    Display aspect ratio        : 16:9
    Frame rate mode             : Constant
    Frame rate                  : 23.976 (24000/1001) FPS
    Color space                 : YUV
    Chroma subsampling          : 4:2:0
    Bit depth                   : 8 bits
    Scan type                   : Progressive
    Bits/(Pixel*Frame)          : 0.089
    Stream size                 : 693 MiB (77%)
    Writing library             : x264 core 148 r2715 7e75228
    Encoding settings           : cabac=1 / ref=3 / deblock=1:0:0 / analyse=0x1:0x111 / me=umh / subme=10 / psy=1 / psy_rd=1.00:0.00 / mixed_ref=1 / me_range=24 / chroma_me=1 / trellis=2 / 8x8dct=0 / cqm=0 / deadzone=21,11 / fast_pskip=1 / chroma_qp_offset=-2 / threads=6 / lookahead_threads=1 / sliced_threads=0 / nr=0 / decimate=1 / interlaced=0 / bluray_compat=0 / stitchable=1 / constrained_intra=0 / bframes=2 / b_pyramid=0 / b_adapt=2 / b_bias=0 / direct=3 / weightb=1 / open_gop=0 / weightp=2 / keyint=48 / keyint_min=25 / scenecut=0 / intra_refresh=0 / rc_lookahead=48 / rc=2pass / mbtree=1 / bitrate=4420 / ratetol=1.0 / qcomp=0.50 / qpmin=6 / qpmax=51 / qpstep=4 / cplxblur=20.0 / qblur=0.5 / vbv_maxrate=6630 / vbv_bufsize=8840 / nal_hrd=vbr / filler=0 / ip_ratio=1.40 / aq=1:1.00
    Language                    : English
    Default                     : Yes
    Forced                      : No

    Audio #1
    ID                          : 2
    Format                      : E-AC-3
    Format/Info                 : Enhanced Audio Coding 3
    Format settings, Endianness : Big
    Codec ID                    : A_EAC3
    Duration                    : 22 min 14 s
    Bit rate mode               : Constant
    Bit rate                    : 640 kb/s
    Channel(s)                  : 6 channels
    Channel positions           : Front: L C R, Side: L R, LFE
    Sampling rate               : 48.0 kHz
    Frame rate                  : 187.500 FPS (256 SPF)
    Compression mode            : Lossy
    Stream size                 : 102 MiB (11%)
    Title                       : Dub
    Language                    : Russian
    Service kind                : Complete Main
    Default                     : Yes
    Forced                      : No

    Audio #2
    ID                          : 3
    Format                      : E-AC-3
    Format/Info                 : Enhanced Audio Coding 3
    Format settings, Endianness : Big
    Codec ID                    : A_EAC3
    Duration                    : 22 min 11 s
    Bit rate mode               : Constant
    Bit rate                    : 640 kb/s
    Channel(s)                  : 6 channels
    Channel positions           : Front: L C R, Side: L R, LFE
    Sampling rate               : 48.0 kHz
    Frame rate                  : 187.500 FPS (256 SPF)
    Compression mode            : Lossy
    Stream size                 : 102 MiB (11%)
    Title                       : Original
    Language                    : English
    Service kind                : Complete Main
    Default                     : No
    Forced                      : No

    Text #1
    ID                          : 4
    Format                      : UTF-8
    Codec ID                    : S_TEXT/UTF8
    Codec ID/Info               : UTF-8 Plain Text
    Duration                    : 21 min 38 s
    Bit rate                    : 2 b/s
    Count of elements           : 14
    Stream size                 : 427 Bytes (0%)
    Title                       : Forced
    Language                    : Russian
    Default                     : Yes
    Forced                      : No

    Text #2
    ID                          : 5
    Format                      : UTF-8
    Codec ID                    : S_TEXT/UTF8
    Codec ID/Info               : UTF-8 Plain Text
    Duration                    : 21 min 38 s
    Bit rate                    : 180 b/s
    Count of elements           : 443
    Stream size                 : 28.6 KiB (0%)
    Title                       : Full
    Language                    : Russian
    Default                     : No
    Forced                      : No

    Text #3
    ID                          : 6
    Format                      : UTF-8
    Codec ID                    : S_TEXT/UTF8
    Codec ID/Info               : UTF-8 Plain Text
    Duration                    : 21 min 31 s
    Bit rate                    : 118 b/s
    Count of elements           : 457
    Stream size                 : 18.6 KiB (0%)
    Title                       : SDH
    Language                    : English
    Default                     : No
    Forced                      : NoСвернуть


    Похожие раздачи Искать похожие
    Инструкция по скачиванию
     1  Качаем uTorrent версии 2.0 и выше
     2  После установки, жмем выше под постером на ссылку Скачать [MediaGet] или Скачать .torrent
     3  Открываем скачанный файл через соответствующий клиент: MediaGet или uTorrent
     4  Ждем пока подключатся участники
     5  Качаем
    Комментарии о  Отличные новости / Great News [Сезон 01] | WEB-DL 1080p 
    Ближайшее в кино
    Вверх