• Игры для PS4
  • Игры для PS3
  • Игры для XBOX360
  • Игры для PC
  • Игры для PS2
  • Игры для PSP
  • Для телефонов
  • Музыка
  • Книги / Журналы
  • Обои
  • Опрос
    Удобен ли сайт в использовании?
      0
    • Очень удобен, все понятно1,1,false,300,full
    • Удобен1,2,false,300,full
    • Средне1,3,false,300,full
    • Неудобен, трудно ориентироваться1,4,false,300,full
    • Совсем неудобен1,5,false,300,full
    Статистика
    Всего онлайн -
    Гостей -
    Пользователей -
    Короли трекера
    Благодарности () Закрыть
    Информация о фильме
    Название: Хвост Феи (Сказка о Хвосте Феи, Фейри Тейл)
    Оригинальное название: Fairy Tail
    Страна: Япония [img]http://linkme.ufanet.ru/images/c3/c3276ea38c3dc8e4072303c547f220ef.gif[/img]
    Год выхода: 2018
    Жанр: приключения, фэнтези, сёнэн
    Режиссер: Исихира Синдзи
    Автор оригинала: Масима Хиро

    О фильме: Прошёл год с тех пор, как Макаров объявил о роспуске Хвоста феи. Все члены гильдии разошлись по миру. Люси всерьёз занялась журналистикой в столице. Но скуку её новой жизни развеял Нацу, неожиданно заявившийся на Великие магические игры. Теперь они вместе отправились на поиски остальных участников легендарной гильдии.

    Студия:
    [img]http://img11.lostpic.net/2018/10/07/a77e28bfc378eaf7255a0b321cc89f85.jpg[/img][img]http://i63.fastpic.ru/big/2014/0706/c3/b4abd96498705659460315f3cd695dc3.jpg[/img]

    [img]http://imdb.snick.ru/ratefor/02/tt1528406.png[/img]
    Продолжительность: ~ 00:24:00
    Перевод: Любительский (двухголосый)
    Озвучили: FREYA & NAZEL
    Тайминг и сведение звука: AngryBobrik
    Сборка контейнера: Eugeo

    Файл
    Формат: mp4
    Качество: HDTVRip 720p
    Видео: H.264; 1280x720; ~ 1800 Kbps, 23.976fps; (8 bit)
    Аудио 1: AAC 48000 Hz, 2.0, 192 kbps Язык Русский
    Аудио 2: AAC 48000 Hz, 2.0, 207 kbps Язык Японский
    Субтитры: (внешние ASS) Язык субтитров русский ; Перевод: Thousandth Day (risens team)

    Инфо-файл

    Общее
    Полное имя                               : F:KinozalFairy Tail [TV-3[AniMedia.TV]Fairy Tail [TV-3] - 01 [FREYA & NAZEL].ass
    Размер файла                             : 34,5 Кбайт

    Общее
    Полное имя                               : F:KinozalFairy Tail [TV-3[AniMedia.TV]Fairy Tail [TV-3] - 01 [FREYA & NAZEL].mp4
    Формат                                   : MPEG-4
    Профиль формата                          : Base Media
    Идентификатор кодека                     : isom
    Размер файла                             : 383 Мбайт
    Продолжительность                        : 24 м.
    Режим общего битрейта                    : Переменный
    Общий поток                              : 2215 Кбит/сек
    Дата кодирования                         : UTC 2018-10-06 13:32:53
    Дата пометки                             : UTC 2018-10-06 13:32:53
    Программа кодирования                    : Yamb 2.1.0.0 [http://yamb.unite-video.com]

    Видео
    Идентификатор                            : 1
    Формат                                   : AVC
    Формат/Информация                        : Advanced Video Codec
    Профиль формата                          : Main@L4.1
    Параметр CABAC формата                   : Да
    Параметр ReFrames формата                : 4 кадра
    Идентификатор кодека                     : avc1
    Идентификатор кодека/Информация          : Advanced Video Coding
    Продолжительность                        : 24 м.
    Битрейт                                  : 1810 Кбит/сек
    Максимальный битрейт                     : 13,0 Мбит/сек
    Ширина                                   : 1280 пикселей
    Высота                                   : 720 пикселей
    Соотношение сторон                       : 16:9
    Режим частоты кадров                     : Постоянный
    Частота кадров                           : 23,976 кадра/сек
    Цветовое пространство                    : YUV
    Субдискретизация насыщенности            : 4:2:0
    Битовая глубина                          : 8 бит
    Тип развёртки                            : Прогрессивная
    Бит/(Пиксели*Кадры)                      : 0.082
    Размер потока                            : 313 Мбайт (82%)
    Библиотека кодирования                   : x264 core 157 r2935 545de2f
    Настройки программы                      : cabac=1 / ref=3 / deblock=1:0:0 / analyse=0x1:0x111 / me=hex / subme=7 / psy=1 / psy_rd=1.00:0.00 / mixed_ref=1 / me_range=16 / chroma_me=1 / trellis=1 / 8x8dct=0 / cqm=0 / deadzone=21,11 / fast_pskip=1 / chroma_qp_offset=-2 / threads=18 / lookahead_threads=3 / sliced_threads=0 / nr=0 / decimate=1 / interlaced=0 / bluray_compat=0 / constrained_intra=0 / bframes=3 / b_pyramid=2 / b_adapt=1 / b_bias=0 / direct=1 / weightb=1 / open_gop=0 / weightp=2 / keyint=240 / keyint_min=1 / scenecut=40 / intra_refresh=0 / rc_lookahead=40 / rc=crf / mbtree=1 / crf=20.0 / qcomp=0.60 / qpmin=0 / qpmax=69 / qpstep=4 / ip_ratio=1.40 / aq=1:1.50
    Дата кодирования                         : UTC 2018-10-07 04:16:37
    Дата пометки                             : UTC 2018-10-06 13:33:03
    Цветовой диапазон                        : Limited
    Основные цвета                           : BT.709
    Характеристики трансфера                 : BT.709
    Коэффициенты матрицы                     : BT.709

    Аудио #1
    Идентификатор                            : 2
    Формат                                   : AAC
    Формат/Информация                        : Advanced Audio Codec
    Профиль формата                          : LC
    Идентификатор кодека                     : 40
    Продолжительность                        : 24 м.
    Вид битрейта                             : Переменный
    Битрейт                                  : 192 Кбит/сек
    Максимальный битрейт                     : 197 Кбит/сек
    Каналы                                   : 2 канала
    Расположение каналов                     : Front: L R
    Частота                                  : 48,0 КГц
    Метод сжатия                             : С потерями
    Размер потока                            : 33,2 Мбайт (9%)
    Заголовок                                : FREYA & NAZEL
    Язык                                     : Russian
    Дата кодирования                         : UTC 2018-10-06 13:32:57
    Дата пометки                             : UTC 2018-10-06 13:33:03

    Аудио #2
    Идентификатор                            : 3
    Формат                                   : AAC
    Формат/Информация                        : Advanced Audio Codec
    Профиль формата                          : LC
    Идентификатор кодека                     : 40
    Продолжительность                        : 24 м.
    Вид битрейта                             : Переменный
    Битрейт                                  : 207 Кбит/сек
    Максимальный битрейт                     : 270 Кбит/сек
    Каналы                                   : 2 канала
    Расположение каналов                     : Front: L R
    Частота                                  : 48,0 КГц
    Метод сжатия                             : С потерями
    Размер потока                            : 35,8 Мбайт (9%)
    Язык                                     : Japanese
    Дата кодирования                         : UTC 2018-10-06 13:32:58
    Дата пометки                             : UTC 2018-10-06 13:33:03
    Свернуть


    Список серий
    01. День Благодарения Чешуи Ламии
    Свернуть


    Похожие раздачи Искать похожие
    Инструкция по скачиванию
     1  Качаем uTorrent версии 2.0 и выше
     2  После установки, жмем выше под постером на ссылку Скачать [MediaGet] или Скачать .torrent
     3  Открываем скачанный файл через соответствующий клиент: MediaGet или uTorrent
     4  Ждем пока подключатся участники
     5  Качаем
    Комментарии о  Сказка о хвосте феи / Fairy Tail [Сезон 03 | 01 серия из 25] | HDTVRip 720p 
    Ближайшее в кино
    Вверх