• Игры для PS4
  • Игры для PS3
  • Игры для XBOX360
  • Игры для PC
  • Игры для PS2
  • Игры для PSP
  • Для телефонов
  • Музыка
  • Книги / Журналы
  • Обои
  • Опрос
    Откуда Вы о нас узнали?
      0
    • От знакомых2,1,false,300,full
    • Из социальных сетей2,2,false,300,full
    • Из поисковых систем2,3,false,300,full
    • Другое2,4,false,300,full
    Статистика
    Всего онлайн -
    Гостей -
    Пользователей -
    Короли трекера
    Благодарности () Закрыть
    Информация о фильме
    Название: Покрашенный дом
    Оригинальное название: A Painted House
    Год выпуска: 2003
    Выпущено: США, CBS Television, Hallmark Hall of Fame Productions, McGee Street Productions Inc., Unknown
    Жанр:  Драма
    Режиссер: Альфонсо Арау
    В ролях: Скотт Гленн, Ария Барейкис, Роберт Шон Леонард, Мелинда Диллон, Логан Лерман, Одри Мари Андерсон, Джеффри Льюис, Пабло Шрайбер, Майкл Шамус Уайлз, Луис Гарсия, Мигель Перес, Дайан Делано

    О фильме: По одноимённому роману Джона Гришэма.
    Дельта реки Арканзас, 1952 год. Люк и его семья — родители, дедушка и бабушка — живут небогато, но счастливо. Но когда на сбор хлопка приезжают сезонные рабочие, в замкнутый мир семейной фермы вторгаются вражда и насилие, и Люк становится хранителем секретов, которые могут разрушить его семью.

    Продолжительность: 01:37:41
    Перевод: Профессиональный двухголосый
    Субтитры: Английские
    Навигация по главам: Есть

    Файл
    Качество: WEB-DL 1080p
    Видео: MPEG-4 AVC, 9534 Кбит/сек, 1920x1080, 23,976 кадра/сек
    Аудио #1: AC3, 2 ch, 192 Кбит/сек | Русский, профессиональный (двухголосый закадровый)
    Аудио #2: EAC3, 2 ch, 224 Кбит/сек | Английский, оригинал



    Скриншоты
    [screen]http://img11.lostpic.net/2018/10/07/f0d16b0d6163b268f70a0ad02fa5c2fd.png[/screen][screen]http://img11.lostpic.net/2018/10/07/045304ef16f64b48ff0a58a9c1ac6e08.png[/screen][screen]http://img11.lostpic.net/2018/10/07/eaa6d24531bb69e98da3e3ab500b12af.png[/screen][screen]http://img11.lostpic.net/2018/10/07/50aa0305b0fceb06d3463105446c8ef7.png[/screen][screen]http://img11.lostpic.net/2018/10/07/40d003144c3cd86e6d4fcabc02fbbcaf.png[/screen][screen]http://img11.lostpic.net/2018/10/07/8e4b7ac05c9314f2635b066cae1afb7b.png[/screen][screen]http://img11.lostpic.net/2018/10/07/c5ccaac223b06b87c1dba7f91cb538c8.png[/screen][screen]http://img11.lostpic.net/2018/10/07/e923823bec1e2cdf16e1f0aaec8dfb30.png[/screen]Свернуть


    Инфо-файл
    Общее
    Уникальный идентификатор                 : 229729972870742523029915636342052810184 (0xACD46225AEF33AD6BF6259F0BCB2EDC8)
    Полное имя                               : Покрашенный.дом.2003.WEB-DL.1080p.mkv
    Формат                                   : Matroska
    Версия формата                           : Version 2
    Размер файла                             : 6,93 Гбайт
    Продолжительность                        : 1 ч. 37 м.
    Режим общего битрейта                    : Переменный
    Общий поток                              : 10,2 Мбит/сек
    Дата кодирования                         : UTC 2018-10-07 00:49:12
    Программа кодирования                    : mkvmerge v5.8.0 ("No Sleep / Pillow") built on Sep  2 2012 15:37:04
    Библиотека кодирования                   : libebml v1.2.3 + libmatroska v1.3.0

    Видео
    Идентификатор                            : 1
    Формат                                   : AVC
    Формат/Информация                        : Advanced Video Codec
    Профиль формата                          : High@L4
    Настройки формата                        : CABAC / 4 Ref Frames
    Параметр CABAC формата                   : Да
    Параметр RefFrames формата               : 4 кадра
    Идентификатор кодека                     : V_MPEG4/ISO/AVC
    Продолжительность                        : 1 ч. 37 м.
    Вид битрейта                             : Переменный
    Битрейт                                  : 9534 Кбит/сек
    Максимальный битрейт                     : 15,0 Мбит/сек
    Ширина                                   : 1920 пикселей
    Высота                                   : 1080 пикселей
    Соотношение сторон                       : 16:9
    Режим частоты кадров                     : Постоянный
    Частота кадров                           : 23,976 (24000/1001) кадра/сек
    Цветовое пространство                    : YUV
    Субдискретизация насыщенности            : 4:2:0
    Битовая глубина                          : 8 бит
    Тип развёртки                            : Прогрессивная
    Бит/(Пиксели*Кадры)                      : 0.192
    Размер потока                            : 6,51 Гбайт (94%)
    Язык                                     : English
    По умолчанию                             : Да
    Принудительно                            : Нет
    Цветовой диапазон                        : Limited
    Основные цвета                           : BT.709
    Характеристики трансфера                 : BT.709
    Коэффициенты матрицы                     : BT.709

    Аудио #1
    Идентификатор                            : 2
    Формат                                   : AC-3
    Формат/Информация                        : Audio Coding 3
    Идентификатор кодека                     : A_AC3
    Продолжительность                        : 1 ч. 37 м.
    Вид битрейта                             : Постоянный
    Битрейт                                  : 192 Кбит/сек
    Каналы                                   : 2 канала
    Расположение каналов                     : Front: L R
    Частота                                  : 48,0 КГц
    Частота кадров                           : 31,250 кадров/сек (1536 SPF)
    Битовая глубина                          : 16 бит
    Метод сжатия                             : С потерями
    Размер потока                            : 134 Мбайт (2%)
    Заголовок                                : DVO
    Язык                                     : Russian
    По умолчанию                             : Да
    Принудительно                            : Нет

    Аудио #2
    Идентификатор                            : 3
    Формат                                   : E-AC-3
    Формат/Информация                        : Enhanced Audio Coding 3
    Идентификатор кодека                     : A_EAC3
    Продолжительность                        : 1 ч. 37 м.
    Вид битрейта                             : Постоянный
    Битрейт                                  : 224 Кбит/сек
    Каналы                                   : 2 канала
    Расположение каналов                     : Front: L R
    Частота                                  : 48,0 КГц
    Частота кадров                           : 187,500 кадров/сек (256 SPF)
    Метод сжатия                             : С потерями
    Размер потока                            : 157 Мбайт (2%)
    Заголовок                                : Original
    Язык                                     : English
    По умолчанию                             : Нет
    Принудительно                            : Нет

    Текст
    Идентификатор                            : 4
    Формат                                   : UTF-8
    Идентификатор кодека                     : S_TEXT/UTF8
    Идентификатор кодека/Информация          : UTF-8 Plain Text
    Заголовок                                : SDH
    Язык                                     : English
    По умолчанию                             : Нет
    Принудительно                            : Нетт

    Меню
    00:00:00.000                             : ru:Глава №-01
    00:10:19.775                             : ru:Глава №-02
    00:15:37.389                             : ru:Глава №-03
    00:20:46.718                             : ru:Глава №-04
    00:26:02.268                             : ru:Глава №-05
    00:31:12.638                             : ru:Глава №-06
    00:36:26.710                             : ru:Глава №-07
    00:41:40.340                             : ru:Глава №-08
    00:46:49.312                             : ru:Глава №-09
    00:52:01.440                             : ru:Глава №-10
    00:57:18.773                             : ru:Глава №-11
    01:02:33.436                             : ru:Глава №-12
    01:07:43.298                             : ru:Глава №-13
    01:13:04.485                             : ru:Глава №-14
    01:17:33.447                             : ru:Глава №-15
    01:23:23.680                             : ru:Глава №-16
    01:28:39.372                             : ru:Глава №-17Свернуть


    Дополнительная информация
    • Исходник видео WEB-DL Amazon.Свернуть


    Сборка:[img]http://i1.imageban.ru/out/2018/02/13/db08a675822da337df05f97bda2ce544.gif[/img] [img]http://i3.imageban.ru/out/2018/07/23/276881ff853d23c7f0c2335cfae4252f.png[/img]
    Похожие раздачи Искать похожие
    Инструкция по скачиванию
     1  Качаем uTorrent версии 2.0 и выше
     2  После установки, жмем выше под постером на ссылку Скачать [MediaGet] или Скачать .torrent
     3  Открываем скачанный файл через соответствующий клиент: MediaGet или uTorrent
     4  Ждем пока подключатся участники
     5  Качаем
    Комментарии о  Покрашенный дом / A Painted House | WEB-DL 1080p 
    Ближайшее в кино
    Вверх