• Игры для PS4
  • Игры для PS3
  • Игры для XBOX360
  • Игры для PC
  • Игры для PS2
  • Игры для PSP
  • Для телефонов
  • Музыка
  • Книги / Журналы
  • Обои
  • Опрос
    Откуда Вы о нас узнали?
      0
    • От знакомых2,1,false,300,full
    • Из социальных сетей2,2,false,300,full
    • Из поисковых систем2,3,false,300,full
    • Другое2,4,false,300,full
    Статистика
    Всего онлайн -
    Гостей -
    Пользователей -
    Короли трекера
    
    Благодарности () Закрыть
    Быстрее загружает сайты Экономит интернет—трафик Меняет оформление страницы ВК Блокирует всю рекламу на сайтах Загружает торренты как µTorrent клиент Объеденяет все твои чаты из соц. сетей в один Проигрывает твою музыку не заходя во ВКонтакте
    Новый интернет-браузер
    Orbitum
    Скачать
    и многое другое... Подробности на сайте производителя
    Название: Большая прогулка
    Оригинальное название: La grande vadrouille
    Год выхода: 1966
    Жанр:  Комедия, Приключения, Военный
    Режиссер: Жерар Ури
    В ролях: Луи де Фюнес, Бурвиль, Клаудио Брук, Андреа Паризи, Колетт Броссе, Майк Маршалл, Мари Марке, Пьер Бертен, Бенно Штерценбах, Мари Дюбуа, Терри-Томас, Поль Пребуа, Ги Гроссо, Жан Дроз

    Роли дублировали: Владимир Кенигсон , Андрей Попов,Степан Бубнов , Алексей Полевой , Серафима Холина.

    О фильме:
    Небо над Парижем, 1942 год. Английский бомбардировщик, выполняющий важное задание, подбит немцами. Летчики покидают горящую машину, договариваясь встретиться через некоторое время в турецкой бане. Один из них приземляется на крыше дома, где работает парижский маляр Огюстен Буве.
    Другой падает на крышу Гранд-Опера и прячется вместе с парашютом в апартаментах главного дирижера. А командир экипажа сэр Реджинальд «приводняется» в зоопарке - в пруду с тюленями. И как только англичане попадают в Париж, начинаются совершенно невероятные приключения…



    Страна: Франция, Великобритания
    Студия: Les Films Corona
    Продолжительность: 02:03:47
    Перевод: Дубляж "Союзмультфильм", многоголосый (закадровый), Французский (оригинал)
    Субтитры: Русские, английские, французские

    Файл
    Кодек: x264
    Качество: BDRip 720p
    Видео: 1280x544, 6268 Kbps, 23.98fps
    Аудио#1: AC3 48000Hz 2ch 192 Kbps
    Аудио#2: AC3 48000Hz 6ch 448 Kbps
    Аудио#3: DTS-HDMA 3.0CH 1509kbps

    За исходный диск спасибо трекеру bluebird-hd
    MARQUISE HDTracker
    M/I
    General
    Unique ID                   : 179474597359857868317803663402006994516 (0x87058CD5664B3C2A917C17DCD9EFDE54)
    Complete name               : E:ВИДЕО_2Не удалять_1Bolshaja.progulka.1966.x264.BDRip.(720p).HDTRacker.mkv
    Format                      : Matroska
    Format version              : Version 2
    File size                   : 7.28 GiB
    Duration                    : 2 h 3 min
    Overall bit rate            : 8 419 kb/s
    Movie name                  : MARQUISE release for HDTRacker
    Encoded date                : UTC 2012-04-07 12:25:50
    Writing application         : mkvmerge v3.4.0 ("Rapunzel") сборка от May 15 2010 09:38:20
    Writing library             : libebml v0.8.0 + libmatroska v0.9.0

    Video
    ID                          : 1
    Format                      : AVC
    Format/Info                 : Advanced Video Codec
    Format profile              : High@L4.1
    Format settings             : CABAC / 8 Ref Frames
    Format settings, CABAC      : Yes
    Format settings, ReFrames   : 8 frames
    Codec ID                    : V_MPEG4/ISO/AVC
    Duration                    : 2 h 3 min
    Bit rate                    : 6 268 kb/s
    Width                       : 1 280 pixels
    Height                      : 544 pixels
    Display aspect ratio        : 2.35:1
    Frame rate mode             : Constant
    Frame rate                  : 23.976 FPS
    Color space                 : YUV
    Chroma subsampling          : 4:2:0
    Bit depth                   : 8 bits
    Scan type                   : Progressive
    Bits/(Pixel*Frame)          : 0.375
    Stream size                 : 5.28 GiB (72%)
    Title                       : ВИДЕОРЯД
    Writing library             : x264 core 119 r2106 07efeb4
    Encoding settings           : cabac=1 / ref=8 / deblock=1:-3:-3 / analyse=0x3:0x113 / me=umh / subme=10 / psy=1 / psy_rd=1.00:0.10 / mixed_ref=1 / me_range=48 / chroma_me=1 / trellis=2 / 8x8dct=1 / cqm=0 / deadzone=21,11 / fast_pskip=1 / chroma_qp_offset=-3 / threads=12 / sliced_threads=0 / nr=0 / decimate=1 / interlaced=0 / bluray_compat=0 / constrained_intra=0 / bframes=8 / b_pyramid=2 / b_adapt=1 / b_bias=0 / direct=3 / weightb=1 / open_gop=0 / weightp=2 / keyint=250 / keyint_min=25 / scenecut=40 / intra_refresh=0 / rc=2pass / mbtree=0 / bitrate=6268 / ratetol=1.0 / qcomp=0.60 / qpmin=0 / qpmax=69 / qpstep=4 / cplxblur=20.0 / qblur=0.5 / ip_ratio=1.40 / pb_ratio=1.30 / aq=1:0.80
    Language                    : French
    Default                     : No
    Forced                      : Yes

    Audio #1
    ID                          : 2
    Format                      : AC-3
    Format/Info                 : Audio Coding 3
    Commercial name             : Dolby Digital
    Codec ID                    : A_AC3
    Duration                    : 2 h 3 min
    Bit rate mode               : Constant
    Bit rate                    : 192 kb/s
    Channel(s)                  : 2 channels
    Channel layout              : L R
    Sampling rate               : 48.0 kHz
    Frame rate                  : 31.250 FPS (1536 SPF)
    Bit depth                   : 16 bits
    Compression mode            : Lossy
    Stream size                 : 170 MiB (2%)
    Title                       : ДУБЛЯЖ
    Language                    : Russian
    Service kind                : Complete Main
    Default                     : No
    Forced                      : Yes

    Audio #2
    ID                          : 3
    Format                      : AC-3
    Format/Info                 : Audio Coding 3
    Commercial name             : Dolby Digital
    Codec ID                    : A_AC3
    Duration                    : 2 h 3 min
    Bit rate mode               : Constant
    Bit rate                    : 448 kb/s
    Channel(s)                  : 6 channels
    Channel layout              : L R C LFE Ls Rs
    Sampling rate               : 48.0 kHz
    Frame rate                  : 31.250 FPS (1536 SPF)
    Bit depth                   : 16 bits
    Compression mode            : Lossy
    Stream size                 : 397 MiB (5%)
    Title                       : ЗАКАДРОВЫЙ
    Language                    : Russian
    Service kind                : Complete Main
    Default                     : No
    Forced                      : No

    Audio #3
    ID                          : 4
    Format                      : DTS
    Format/Info                 : Digital Theater Systems
    Codec ID                    : A_DTS
    Duration                    : 2 h 3 min
    Bit rate mode               : Constant
    Bit rate                    : 1 509 kb/s
    Channel(s)                  : 3 channels
    Channel layout              : C L R
    Sampling rate               : 48.0 kHz
    Frame rate                  : 93.750 FPS (512 SPF)
    Bit depth                   : 16 bits
    Compression mode            : Lossy
    Stream size                 : 1.30 GiB (18%)
    Title                       : ОРИГИНАЛ
    Language                    : French
    Default                     : No
    Forced                      : No

    Text #1
    ID                          : 5
    Format                      : UTF-8
    Codec ID                    : S_TEXT/UTF8
    Codec ID/Info               : UTF-8 Plain Text
    Title                       : РУССКИЙ
    Language                    : Russian
    Default                     : No
    Forced                      : No

    Text #2
    ID                          : 6
    Format                      : UTF-8
    Codec ID                    : S_TEXT/UTF8
    Codec ID/Info               : UTF-8 Plain Text
    Title                       : ФРАНЦУЗСКИЙ
    Language                    : French
    Default                     : No
    Forced                      : No

    Text #3
    ID                          : 7
    Format                      : UTF-8
    Codec ID                    : S_TEXT/UTF8
    Codec ID/Info               : UTF-8 Plain Text
    Title                       : АНГЛИЙСКИЙ
    Language                    : English
    Default                     : No
    Forced                      : No

    Menu
    00:00:00.000                : :Chapter 01
    00:06:56.040                : :Chapter 02
    00:10:31.297                : :Chapter 03
    00:16:46.922                : :Chapter 04
    00:21:23.699                : :Chapter 05
    00:28:25.328                : :Chapter 06
    00:33:33.845                : :Chapter 07
    00:34:37.700                : :Chapter 08
    00:38:30.599                : :Chapter 09
    00:45:24.346                : :Chapter 10
    00:50:21.226                : :Chapter 11
    00:56:05.111                : :Chapter 12
    00:59:18.846                : :Chapter 13
    01:02:23.364                : :Chapter 14
    01:06:49.964                : :Chapter 15
    01:12:36.769                : :Chapter 16
    01:20:03.799                : :Chapter 17
    01:25:55.275                : :Chapter 18
    01:32:22.745                : :Chapter 19
    01:37:39.854                : :Chapter 20
    01:41:52.981                : :Chapter 21
    01:47:48.211                : :Chapter 22
    01:52:15.145                : :Chapter 23
    02:02:21.917                : :Chapter 24Свернуть


    Похожие раздачи Искать похожие
    Инструкция по скачиванию
     1  Качаем uTorrent версии 2.0 и выше
     2  После установки, жмем выше под постером на ссылку Скачать [MediaGet] или Скачать .torrent
     3  Открываем скачанный файл через соответствующий клиент: MediaGet или uTorrent
     4  Ждем пока подключатся участники
     5  Качаем
    Комментарии о  Большая прогулка / La grande vadrouille | BDRip 720p 
    Ближайшее в кино
    Вверх