• Игры для PS4
  • Игры для PS3
  • Игры для XBOX360
  • Игры для PC
  • Игры для PS2
  • Игры для PSP
  • Для телефонов
  • Музыка
  • Книги / Журналы
  • Обои
  • Опрос
    Удобен ли сайт в использовании?
      0
    • Очень удобен, все понятно1,1,false,300,full
    • Удобен1,2,false,300,full
    • Средне1,3,false,300,full
    • Неудобен, трудно ориентироваться1,4,false,300,full
    • Совсем неудобен1,5,false,300,full
    Статистика
    Всего онлайн -
    Гостей -
    Пользователей -
    Короли трекера
    Благодарности () Закрыть
    Название: Восхождение пехотинца 3
    Оригинальное название: Rise of the Footsoldier 3
    Год выхода: 2017

    Страна: Великобритания
    Студия: Carnaby International,The Drone Company
    Продолжительность: 01:39:27
    Жанр: боевик, триллер, криминал

    Режиссер: Закари Адлер
    В ролях: Крэйг Фэйрбрасс, Терри Стоун, Роланд Манукян, Джэми Формен, Джош Майерс, Эдди Веббер, Йен Вирго, Энди Беквит, Шон Райдер, Лаура МакМонэйгл, ...

    Перевод: авторский (одноголосый, закадровый) Карповский Антон Сергеевич

    О фильме: В третьем фильме цикла о гангстерском мире Эссекса отражены события, происходившие с героем, который в первой части был второстепенным, это - Пэт Тейт. Его роль исполнил Крейг Фейрбрасс, сумевший воплотить на экране такого героя, которому не хочется симпатизировать. Здесь ретроспективное повествование о жизни Пэта Тейта, - наглого и жестокого бандита, совершенно не лиричного убийцы и наркомана…



    Кодек: x264
    Качество: BDRip 1080p
    Видео: 1912x1036, 13000 kbps, 24 fps
    Аудио #1: AC-3, 6 ch, 640 kbps (Rus) - AVO Карповский Антон Сергеевич
    Аудио #2: DTS, 6 ch, 1509 kbps (Eng)
    Субтитры: английские
    Спасибо за исходник

    Внимание! В фильме присутствует ненормативная лексика!

    MediaInfo

    x264 [info]: frame I:931   Avg QP:16.73  size:203832
    x264 [info]: frame P:33787 Avg QP:19.28  size: 95050
    x264 [info]: frame B:108496 Avg QP:21.77  size: 57959
    x264 [info]: consecutive B-frames:  3.6%  5.2%  8.6% 18.8% 11.8% 41.2%  4.0%  0.6%  2.9%  0.3%  0.9%  0.8%  0.5%  0.1%  0.7%

    Общее
    Уникальный идентификатор : 210341842807381042592684628042208656361 (0x9E3E5D885DBE1BF38B75CD0DCD9E3BE9)
    Полное имя : Восхождение пехотинца 3 (Rise of the Footsoldier 3) 2017 BDRip 1080p.mkv
    Формат : Matroska
    Версия формата : Version 2
    Размер файла : 10,5 Гбайт
    Продолжительность : 1 ч. 39 м.
    Общий поток : 15,1 Мбит/сек
    Дата кодирования : UTC 2018-10-08 05:00:31
    Программа кодирования : mkvmerge v4.0.0 ("The Stars were mine") сборка от Jun 6 2010 16:18:42
    Библиотека кодирования : libebml v1.0.0 + libmatroska v1.0.0

    Видео
    Идентификатор : 1
    Формат : AVC
    Формат/Информация : Advanced Video Codec
    Профиль формата : High@L4.1
    Параметр CABAC формата : Да
    Параметр ReFrames формата : 4 кадра
    Идентификатор кодека : V_MPEG4/ISO/AVC
    Продолжительность : 1 ч. 39 м.
    Битрейт : 13,0 Мбит/сек
    Ширина : 1920 пикселей
    Высота : 1036 пикселей
    Соотношение сторон : 1,85:1
    Режим частоты кадров : Постоянный
    Частота кадров : 24,000 кадра/сек
    Цветовое пространство : YUV
    Субдискретизация насыщенности : 4:2:0
    Битовая глубина : 8 бит
    Тип развёртки : Прогрессивная
    Бит/(Пиксели*Кадры) : 0.272
    Размер потока : 8,82 Гбайт (84%)
    Библиотека кодирования : x264 core 146 r2538 121396c
    Настройки программы : cabac=1 / ref=4 / deblock=1:-2:-2 / analyse=0x3:0x133 / me=umh / subme=11 / psy=1 / psy_rd=1.00:0.00 / mixed_ref=1 / me_range=32 / chroma_me=1 / trellis=2 / 8x8dct=1 / cqm=0 / deadzone=21,11 / fast_pskip=0 / chroma_qp_offset=-2 / threads=12 / lookahead_threads=2 / sliced_threads=0 / nr=0 / decimate=0 / interlaced=0 / bluray_compat=0 / constrained_intra=0 / bframes=14 / b_pyramid=2 / b_adapt=2 / b_bias=0 / direct=3 / weightb=1 / open_gop=0 / weightp=2 / keyint=240 / keyint_min=24 / scenecut=40 / intra_refresh=0 / rc=2pass / mbtree=0 / bitrate=13000 / ratetol=1.0 / qcomp=0.60 / qpmin=0 / qpmax=69 / qpstep=4 / cplxblur=20.0 / qblur=0.5 / ip_ratio=1.40 / pb_ratio=1.30 / aq=2:0.80
    Язык : English
    Default : Нет
    Forced : Нет

    Аудио #1
    Идентификатор : 2
    Формат : AC-3
    Формат/Информация : Audio Coding 3
    Расширение режима : CM (complete main)
    Параметр Endianness формата : Big
    Идентификатор кодека : A_AC3
    Продолжительность : 1 ч. 39 м.
    Вид битрейта : Постоянный
    Битрейт : 640 Кбит/сек
    Каналы : 6 каналов
    Расположение каналов : Front: L C R, Side: L R, LFE
    Частота : 48,0 КГц
    Частота кадров : 31,250 кадров/сек (1536 spf)
    Метод сжатия : С потерями
    Размер потока : 455 Мбайт (4%)
    Заголовок : VO Карповский Антон Сергеевич
    Язык : Russian
    Default : Нет
    Forced : Нет

    Аудио #2
    Идентификатор : 3
    Формат : DTS
    Формат/Информация : Digital Theater Systems
    Режим : 16
    Параметр Endianness формата : Big
    Идентификатор кодека : A_DTS
    Продолжительность : 1 ч. 39 м.
    Вид битрейта : Постоянный
    Битрейт : 1509 Кбит/сек
    Каналы : 6 каналов
    Расположение каналов : Front: L C R, Side: L R, LFE
    Частота : 48,0 КГц
    Частота кадров : 93,750 кадра/сек (512 spf)
    Битовая глубина : 16 бит
    Метод сжатия : С потерями
    Размер потока : 1,05 Гбайт (10%)
    Язык : English
    Default : Нет
    Forced : Нет

    Текст
    Идентификатор : 4
    Формат : UTF-8
    Идентификатор кодека : S_TEXT/UTF8
    Идентификатор кодека/Информация : UTF-8 Plain Text
    Заголовок : SDH
    Язык : English
    Default : Нет
    Forced : Нет

    Меню
    00:00:00.000 : en:Chapter 1
    00:16:25.042 : en:Chapter 2
    00:32:44.583 : en:Chapter 3
    00:51:00.125 : en:Chapter 4
    01:07:05.375 : en:Chapter 5
    01:22:27.625 : en:Chapter 6
    Свернуть


    [img]https://c.radikal.ru/c04/1810/c3/b3a814467735.jpg[/img][img]https://c.radikal.ru/c03/1810/b3/40efed30f34a.jpg[/img][img]https://c.radikal.ru/c38/1810/93/d19593cc9fc3.jpg[/img][img]https://d.radikal.ru/d18/1810/ab/10b5223d3193.jpg[/img]
    [img]https://c.radikal.ru/c04/1810/95/6efd9567d408.jpg[/img][img]https://c.radikal.ru/c41/1810/81/3317740bfd97.jpg[/img][img]https://a.radikal.ru/a28/1810/18/807ae4c8b6bb.jpg[/img][img]https://c.radikal.ru/c24/1810/b3/9fe334160df7.jpg[/img]
    Инструкция по скачиванию
     1  Качаем uTorrent версии 2.0 и выше
     2  После установки, жмем выше под постером на ссылку Скачать [MediaGet] или Скачать .torrent
     3  Открываем скачанный файл через соответствующий клиент: MediaGet или uTorrent
     4  Ждем пока подключатся участники
     5  Качаем
    Комментарии о  Восхождение пехотинца 3 / Rise of the Footsoldier 3 | BDRip 1080p 
    Ближайшее в кино
    Вверх