• Игры для PS4
  • Игры для PS3
  • Игры для XBOX360
  • Игры для PC
  • Игры для PS2
  • Игры для PSP
  • Для телефонов
  • Музыка
  • Книги / Журналы
  • Обои
  • Опрос
    Удобен ли сайт в использовании?
      0
    • Очень удобен, все понятно1,1,false,300,full
    • Удобен1,2,false,300,full
    • Средне1,3,false,300,full
    • Неудобен, трудно ориентироваться1,4,false,300,full
    • Совсем неудобен1,5,false,300,full
    Статистика
    Всего онлайн -
    Гостей -
    Пользователей -
    Короли трекера
    Благодарности () Закрыть
    Информация о фильме
    Название: Призраки прошлого
    Год выхода: 2018
    Жанр: Мелодрама
    Режиссер: Екатерина Двигубская
    В ролях: Алла Юганова, Александр Пашков, Илья Бледный, Татьяна Храмова, Людмила Акулинина, Томас Моцкус, Вероника Волоха, Григорий Гандлевский, Светлана Корчагина, Анна Перелешина, Николай Рыков

    О фильме: Лена Махотина до недавнего времени считала себя счастливой женщиной. У нее любящий муж Слава и маленькая дочка Соня. Лена работает парикмахером и больше всего любит устраивать чужую личную жизнь. Но вдруг одна из ее одиноких клиенток рассказывает ей о своем новом бурном романе и показывает фотографию своего избранника, на которой Лена узнает собственного мужа...

    [img]http://i89.fastpic.ru/big/2017/0502/69/67d521d70873d2399dac9e7d05d0b369.png[/img]

    Страна: Россия
    Студия: "Калейдоскоп фильм", "Грифон"
    Продолжительность: 01:29:29
    Перевод: Не требуется
    Субтитры: Нет

    Файл
    Кодек: XviD
    Качество: HDTVRip
    Видео: 656x368 (1.78:1), 25 fps, XviD build 73 ~1025 kbps avg, 0.17 bit/pixel
    Звук: 48 kHz, MPEG Layer 3, 2 ch, ~128.00 kbps avg

    MediaInfo
    General
    Complete name               : Prizraki.Proshlogo.2018.HDTVRip.ot.Portablius.avi
    Format                      : AVI
    Format/Info                 : Audio Video Interleave
    File size                   : 745 MiB
    Duration                    : 1 h 29 min
    Overall bit rate            : 1 164 kb/s
    Writing application         : VirtualDubMod 1.5.10.3 | www.virtualdub-fr.org || (build 2550/release)
    Writing library             : VirtualDubMod build 2550/release

    Video
    ID                          : 0
    Format                      : MPEG-4 Visual
    Format profile              : Advanced Simple@L5
    Format settings, BVOP       : 1
    Format settings, QPel       : No
    Format settings, GMC        : No warppoints
    Format settings, Matrix     : Custom
    Codec ID                    : XVID
    Codec ID/Hint               : XviD
    Duration                    : 1 h 29 min
    Bit rate                    : 1 026 kb/s
    Width                       : 656 pixels
    Height                      : 368 pixels
    Display aspect ratio        : 16:9
    Frame rate                  : 25.000 FPS
    Color space                 : YUV
    Chroma subsampling          : 4:2:0
    Bit depth                   : 8 bits
    Scan type                   : Progressive
    Compression mode            : Lossy
    Bits/(Pixel*Frame)          : 0.170
    Stream size                 : 657 MiB (88%)
    Writing library             : XviD 73

    Audio
    ID                          : 1
    Format                      : MPEG Audio
    Format version              : Version 1
    Format profile              : Layer 3
    Codec ID                    : 55
    Codec ID/Hint               : MP3
    Duration                    : 1 h 29 min
    Bit rate mode               : Constant
    Bit rate                    : 128 kb/s
    Channel(s)                  : 2 channels
    Sampling rate               : 48.0 kHz
    Compression mode            : Lossy
    Stream size                 : 81.9 MiB (11%)
    Alignment                   : Aligned on interleaves
    Interleave, duration        : 40  ms (1.00 video frame)
    Interleave, preload duratio : 504  ms
    Writing library             : LAME3.99r
    Encoding settings           : -m s -V 4 -q 2 -lowpass 17 -b 128

    Свернуть


    Похожие раздачи Искать похожие
    Инструкция по скачиванию
     1  Качаем uTorrent версии 2.0 и выше
     2  После установки, жмем выше под постером на ссылку Скачать [MediaGet] или Скачать .torrent
     3  Открываем скачанный файл через соответствующий клиент: MediaGet или uTorrent
     4  Ждем пока подключатся участники
     5  Качаем
    Комментарии о  Призраки прошлого | HDTVRip 
    Ближайшее в кино
    Вверх