• Игры для PS4
  • Игры для PS3
  • Игры для XBOX360
  • Игры для PC
  • Игры для PS2
  • Игры для PSP
  • Для телефонов
  • Музыка
  • Книги / Журналы
  • Обои
  • Опрос
    Откуда Вы о нас узнали?
      0
    • От знакомых2,1,false,300,full
    • Из социальных сетей2,2,false,300,full
    • Из поисковых систем2,3,false,300,full
    • Другое2,4,false,300,full
    Статистика
    Всего онлайн -
    Гостей -
    Пользователей -
    Короли трекера
    Благодарности () Закрыть
    Информация о фильме
    Название: Не оставляй следов  
    Оригинальное название: Leave No Trace
    Год выхода: 2018
    Жанр: Драма
    Режиссер: Дебра Граник
    В ролях: Томасин МакКензи, Бен Фостер, Джеффри Риффлард, Майкл Дрэйпер, Дерек Джон Дрешер, Питер Симпсон, Эрик МакГлотлин, Дэна Милликэн, Райан Столяр

    О фильме:
    Уилл и Том — отец и дочь, которые живут в лесопарке, добровольно изолировав себя от общества. Уилл считает, что лучше пить дождевую воду и питаться дарами природы, лишь изредка предпринимая краткосрочные вылазки в город, чем жить среди людей. Но по закону бездомным быть дозволяется, а жить на общественной земле — нет. После того, как рейнджеры и соцработники обнаруживают нелегальных Робинзонов, Уиллу и Том приходится покинуть насиженное место.



    Страна: США, Канада
    Студия: Bron Studios, First Look Media, Harrison Productions
    Продолжительность: 01:49:08
    Перевод: Профессиональный (многоголосый, закадровый) | HDRezka Studio

    Файл
    Качество: BDRip 1080p
    Формат: MKV
    Кодек: MPEG-4 AVC
    Видео: 1920x1038 (1.85:1), 23,976 fps, MPEG-4 AVC ~ 17,2 Мbps avg, 0.359 bit/pixel
    Аудио: AC3, 48 kHz, 2 ch, ~192.00 kbps avg | русский | HDRezka Studio
    Аудио: DTS, 48 kHz, 6 ch, ~1509.00 kbps avg | английский | Оригинал

    Субтитры: Русские (полные), Английские (Full, SDH)
    Семпл

    Инфо-файл
    Общее
    Уникальный идентификатор                 : 69254507986307488005361254233477032070 (0x3419EEDDC57C6004E1B54F38BCF52886)
    Полное имя                               : D:TorrentsЗавершенные0Leave.No.Trace.2018.1080p.BluRay.DD 2.0.x264.mkv
    Формат                                   : Matroska
    Версия формата                           : Version 4 / Version 2
    Размер файла                             : 14,4 Гбайт
    Продолжительность                        : 1 ч. 49 м.
    Общий поток                              : 18,9 Мбит/сек
    Название фильма                          : Не оставляй следов / Leave No Trace (.2018)
    Дата кодирования                         : UTC 2018-10-08 04:49:27
    Программа кодирования                    : mkvmerge v27.0.0 ("Metropolis") 64-bit
    Библиотека кодирования                   : libebml v1.3.6 + libmatroska v1.4.9

    Видео
    Идентификатор                            : 1
    Формат                                   : AVC
    Формат/Информация                        : Advanced Video Codec
    Профиль формата                          : High@L4.1
    Настройки формата                        : CABAC / 4 Ref Frames
    Параметр CABAC формата                   : Да
    Параметр RefFrames формата               : 4 кадра
    Идентификатор кодека                     : V_MPEG4/ISO/AVC
    Продолжительность                        : 1 ч. 49 м.
    Битрейт                                  : 17,2 Мбит/сек
    Ширина                                   : 1920 пикселей
    Высота                                   : 1038 пикселей
    Соотношение сторон                       : 1,85:1
    Режим частоты кадров                     : Постоянный
    Частота кадров                           : 23,976 (24000/1001) кадра/сек
    Цветовое пространство                    : YUV
    Субдискретизация насыщенности            : 4:2:0
    Битовая глубина                          : 8 бит
    Тип развёртки                            : Прогрессивная
    Бит/(Пиксели*Кадры)                      : 0.359
    Размер потока                            : 13,1 Гбайт (91%)
    Заголовок                                : Leave.No.Trace.2018.1080p.BluRay.DD 2.0.x264
    Библиотека кодирования                   : x264 core 157 r2867+103 0d6443f t_mod_Custom_2 [8-bit@all X86_64]
    Настройки программы                      : cabac=1 / ref=4 / deblock=1:-3:-3 / analyse=0x3:0x133 / me=umh / subme=11 / psy=1 / fade_compensate=0.00 / psy_rd=1.10:0.00 / mixed_ref=1 / me_range=64 / chroma_me=1 / trellis=2 / 8x8dct=1 / cqm=0 / deadzone=21,11 / fast_pskip=0 / chroma_qp_offset=-2 / threads=36 / lookahead_threads=8 / sliced_threads=0 / nr=0 / decimate=1 / interlaced=0 / bluray_compat=0 / constrained_intra=0 / fgo=0 / bframes=11 / b_pyramid=2 / b_adapt=2 / b_bias=0 / direct=3 / weightb=1 / open_gop=0 / weightp=2 / keyint=250 / keyint_min=23 / scenecut=40 / intra_refresh=0 / rc=crf / mbtree=0 / crf=16.0000 / qcomp=0.60 / qpmin=0:0:0 / qpmax=36:36:36 / qpstep=4 / ip_ratio=1.30 / pb_ratio=1.20 / aq=2:0.80 / aq-sensitivity=10.00 / aq-factor=1.00:1.00:1.00 / aq2=0 / aq3=0
    Default                                  : Да
    Forced                                   : Нет
    Цветовой диапазон                        : Limited
    Основные цвета                           : BT.709
    Коэффициенты матрицы                     : BT.709

    Аудио #1
    Идентификатор                            : 2
    Формат                                   : AC-3
    Формат/Информация                        : Audio Coding 3
    Идентификатор кодека                     : A_AC3
    Продолжительность                        : 1 ч. 49 м.
    Вид битрейта                             : Постоянный
    Битрейт                                  : 192 Кбит/сек
    Каналы                                   : 2 канала
    Расположение каналов                     : Front: L R
    Частота                                  : 48,0 КГц
    Частота кадров                           : 31,250 кадров/сек (1536 SPF)
    Битовая глубина                          : 16 бит
    Метод сжатия                             : С потерями
    Размер потока                            : 150 Мбайт (1%)
    Заголовок                                : MVO [HDRezka Studio]
    Язык                                     : Russian
    Default                                  : Да
    Forced                                   : Да

    Аудио #2
    Идентификатор                            : 3
    Формат                                   : DTS
    Формат/Информация                        : Digital Theater Systems
    Идентификатор кодека                     : A_DTS
    Продолжительность                        : 1 ч. 49 м.
    Вид битрейта                             : Постоянный
    Битрейт                                  : 1509 Кбит/сек
    Каналы                                   : 6 каналов
    Расположение каналов                     : Front: L C R, Side: L R, LFE
    Частота                                  : 48,0 КГц
    Частота кадров                           : 93,750 кадра/сек (512 SPF)
    Битовая глубина                          : 24 бит
    Метод сжатия                             : С потерями
    Размер потока                            : 1,15 Гбайт (8%)
    Язык                                     : English
    Default                                  : Нет
    Forced                                   : Нет

    Текст #1
    Идентификатор                            : 4
    Формат                                   : UTF-8
    Идентификатор кодека                     : S_TEXT/UTF8
    Идентификатор кодека/Информация          : UTF-8 Plain Text
    Продолжительность                        : 1 ч. 39 м.
    Битрейт                                  : 54 бит/сек
    ElementCount                             : 773
    Размер потока                            : 39,9 Кбайт (0%)
    Заголовок                                : Full
    Язык                                     : Russian
    Default                                  : Нет
    Forced                                   : Нет

    Текст #2
    Идентификатор                            : 5
    Формат                                   : UTF-8
    Идентификатор кодека                     : S_TEXT/UTF8
    Идентификатор кодека/Информация          : UTF-8 Plain Text
    Продолжительность                        : 1 ч. 42 м.
    Битрейт                                  : 32 бит/сек
    ElementCount                             : 793
    Размер потока                            : 24,3 Кбайт (0%)
    Заголовок                                : Full
    Язык                                     : English
    Default                                  : Нет
    Forced                                   : Нет

    Текст #3
    Идентификатор                            : 6
    Формат                                   : UTF-8
    Идентификатор кодека                     : S_TEXT/UTF8
    Идентификатор кодека/Информация          : UTF-8 Plain Text
    Продолжительность                        : 1 ч. 46 м.
    Битрейт                                  : 38 бит/сек
    ElementCount                             : 1002
    Размер потока                            : 30,3 Кбайт (0%)
    Заголовок                                : SDH
    Язык                                     : English
    Default                                  : Нет
    Forced                                   : Нет

    Меню
    00:00:00.000                             : en:Chapter 01
    00:06:03.863                             : en:Chapter 02
    00:12:19.113                             : en:Chapter 03
    00:17:38.974                             : en:Chapter 04
    00:24:16.079                             : en:Chapter 05
    00:31:44.569                             : en:Chapter 06
    00:37:35.878                             : en:Chapter 07
    00:43:43.662                             : en:Chapter 08
    00:46:33.624                             : en:Chapter 09
    00:51:24.498                             : en:Chapter 10
    00:58:27.212                             : en:Chapter 11
    01:02:13.604                             : en:Chapter 12
    01:07:40.056                             : en:Chapter 13
    01:11:50.347                             : en:Chapter 14
    01:17:27.684                             : en:Chapter 15
    01:22:42.874                             : en:Chapter 16
    01:28:44.485                             : en:Chapter 17
    01:34:25.868                             : en:Chapter 18
    01:36:38.542                             : en:Chapter 19
    01:43:31.914                             : en:Chapter 20Свернуть


    Похожие раздачи Искать похожие
    Инструкция по скачиванию
     1  Качаем uTorrent версии 2.0 и выше
     2  После установки, жмем выше под постером на ссылку Скачать [MediaGet] или Скачать .torrent
     3  Открываем скачанный файл через соответствующий клиент: MediaGet или uTorrent
     4  Ждем пока подключатся участники
     5  Качаем
    Комментарии о  Не оставляй следов / Leave No Trace | BDRip 1080p 
    Ближайшее в кино
    Вверх