• Игры для PS4
  • Игры для PS3
  • Игры для XBOX360
  • Игры для PC
  • Игры для PS2
  • Игры для PSP
  • Для телефонов
  • Музыка
  • Книги / Журналы
  • Обои
  • Опрос
    Удобен ли сайт в использовании?
      0
    • Очень удобен, все понятно1,1,false,300,full
    • Удобен1,2,false,300,full
    • Средне1,3,false,300,full
    • Неудобен, трудно ориентироваться1,4,false,300,full
    • Совсем неудобен1,5,false,300,full
    Статистика
    Всего онлайн -
    Гостей -
    Пользователей -
    Короли трекера
    Благодарности () Закрыть
    Страна: СССР
    Производство: Мосфильм

    Жанр:  драма
    Год выпуска: 1961
    Продолжительность: 01:28:38

    Перевод: Не требуется
    Cубтитры: нет
    Оригинальная аудиодорожка: русский

    Режиссер: Анатолий Эфрос

    В ролях:
    Иннокентий Смоктуновский, Елена Фадеева, Василий Макаров, Елена Орлова, Виктория Ермольева, Михаил Логвинов, Валентин Никулин, Павел Шальнов, Евгений Агуров, Эмма Цесарская, Владимир Паперный, Марианна Вертинская, Николай Закиев, Лев Дуров, Николай Малюгин, Александра Денисова, Дмитрий Орловский, А. Белая, Алла Будницкая...

    Описание:
    По повести Веры Пановой «Времена года».
    Геннадий Куприянов (Смоктуновский) работает на стройке. После постоянных ссор с женой герой уходит из дома к медсестре Зине. Ее сын Саша тоже работает на стройке. Ему не нравится Геннадий и парень не знает, как освободить мать от беспокойства и горечи, которые вошли в дом с приходом этого странного человека. Парень стал часто бывать у нового друга. Внимательные родители, умные спокойные разговоры, материальное благополучие - все здесь привлекает парня. Однако глава семьи - заведующий горторгом – давно работает на группу жуликов, орудующих в торговой сети. С ними же, незаметно для себя, оказался связанным и Геннадий Куприянов.

    [img]http://picplus.ru/img/1810/07/1377c636.png[/img]
    [img]http://new-team.org/images/sample_video.png[/img]

    Источник: DVD5 R5
    Качество видео: DVDRip
    Формат видео: AVI

    Видео: 688х512 (4:3), 25 fps, XviD ~ 1559 kbps avg, 0.177 bit/pixel
    Аудио: 48 kHz, Dolby Digital AC3 2.0, 192 kbps

    MediaInfo

    Общее
    Полное имя                               : Visokosnyy.god.1961.DVDRip_[New-team]_by_AVP_Studio.avi
    Формат                                   : AVI
    Формат/Информация                        : Audio Video Interleave
    Размер файла                             : 1,09 Гбайт
    Продолжительность                        : 1 ч. 28 м.
    Общий поток                              : 1761 Кбит/сек
    Программа кодирования                    : VirtualDubMod 1.5.10.3 | www.virtualdub-fr.org || (build 2550/release)
    Библиотека кодирования                   : VirtualDubMod build 2550/release

    Видео
    Идентификатор                            : 0
    Формат                                   : MPEG-4 Visual
    Профиль формата                          : Advanced Simple@L5
    Настройки формата                        : BVOP1 / Custom Matrix
    Параметр BVOP формата                    : 1
    Параметр QPel формата                    : Нет
    Параметр GMC формата                     : Без точки перехода
    Параметр матрицы формата                 : Выборочная
    Идентификатор кодека                     : XVID
    Идентификатор кодека/Подсказка           : XviD
    Продолжительность                        : 1 ч. 28 м.
    Битрейт                                  : 1559 Кбит/сек
    Ширина                                   : 688 пикселей
    Высота                                   : 512 пикселей
    Соотношение сторон                       : 4:3
    Частота кадров                           : 25,000 кадров/сек
    Цветовое пространство                    : YUV
    Субдискретизация насыщенности            : 4:2:0
    Битовая глубина                          : 8 бит
    Тип развёртки                            : Прогрессивная
    Метод сжатия                             : С потерями
    Бит/(Пиксели*Кадры)                      : 0.177
    Размер потока                            : 988 Мбайт (89%)
    Библиотека кодирования                   : XviD 73

    Аудио
    Идентификатор                            : 1
    Формат                                   : AC-3
    Формат/Информация                        : Audio Coding 3
    Коммерческое название                    : Dolby Digital
    Идентификатор кодека                     : 2000
    Продолжительность                        : 1 ч. 28 м.
    Вид битрейта                             : Постоянный
    Битрейт                                  : 192 Кбит/сек
    Каналы                                   : 2 канала
    Channel layout                           : L R
    Частота                                  : 48,0 КГц
    Частота кадров                           : 31,250 кадров/сек (1536 SPF)
    Битовая глубина                          : 16 бит
    Метод сжатия                             : С потерями
    Размер потока                            : 122 Мбайт (11%)
    Выравнивание                             : Разделение по промежуткам
    Продолжительность промежутка             : 40  мс. (1,00 видеокадр)
    Время предзагрузки промежутка            : 500  мс
    Свернуть


    Похожие раздачи Искать похожие
    Инструкция по скачиванию
     1  Качаем uTorrent версии 2.0 и выше
     2  После установки, жмем выше под постером на ссылку Скачать [MediaGet] или Скачать .torrent
     3  Открываем скачанный файл через соответствующий клиент: MediaGet или uTorrent
     4  Ждем пока подключатся участники
     5  Качаем
    Комментарии о  Високосный год | DVDRip 
    Ближайшее в кино
    Вверх