• Игры для PS4
  • Игры для PS3
  • Игры для XBOX360
  • Игры для PC
  • Игры для PS2
  • Игры для PSP
  • Для телефонов
  • Музыка
  • Книги/Журналы
  • Обои
  •  
    Опрос
    Удобен ли сайт в использовании?
      0
    • Очень удобен, все понятно1,1,false,300,full
    • Удобен1,2,false,300,full
    • Средне1,3,false,300,full
    • Неудобен, трудно ориентироваться1,4,false,300,full
    • Совсем неудобен1,5,false,300,full
    Статистика
    Загрузка...
    Високосный год | DVDRip
    Статус  Проверено
    В закладки
    Модератор: Max

    Високосный год | DVDRip [Фильмы 1961] скачать торрентом/torrent бесплатно

    Год выхода
    Категории
    Язык
    Закачал
    Max | 08 октября в 12ч 45м 29с
    Раздел
    Отзывов
    0
    Раздают: 5 Качают: 3 Скачали: 7 Размер: 1.09 GB
    Инфо о раздаче | Благодарности |
    0/5
    0
    0 5 0
    Поддержи нас — расскажи друзьям!
    Orbitum
    Новый интернет-браузер Быстрее загружает сайты Экономит интернет—трафик Меняет оформление страницы ВК Блокирует всю рекламу на сайтах Загружает торренты как

    µTorrent

    клиент
    Объеденяет все твои чаты из соц. сетей в один Проигрывает твою музыку не заходя во ВКонтакте
    Скачать и многое другое... Подробности на сайте производителя
    Страна: СССР
    Производство: Мосфильм

    Жанр:  драма
    Год выпуска: 1961
    Продолжительность: 01:28:38

    Перевод: Не требуется
    Cубтитры: нет
    Оригинальная аудиодорожка: русский

    Режиссер: Анатолий Эфрос

    В ролях:
    Иннокентий Смоктуновский, Елена Фадеева, Василий Макаров, Елена Орлова, Виктория Ермольева, Михаил Логвинов, Валентин Никулин, Павел Шальнов, Евгений Агуров, Эмма Цесарская, Владимир Паперный, Марианна Вертинская, Николай Закиев, Лев Дуров, Николай Малюгин, Александра Денисова, Дмитрий Орловский, А. Белая, Алла Будницкая...

    Описание:
    По повести Веры Пановой «Времена года».
    Геннадий Куприянов (Смоктуновский) работает на стройке. После постоянных ссор с женой герой уходит из дома к медсестре Зине. Ее сын Саша тоже работает на стройке. Ему не нравится Геннадий и парень не знает, как освободить мать от беспокойства и горечи, которые вошли в дом с приходом этого странного человека. Парень стал часто бывать у нового друга. Внимательные родители, умные спокойные разговоры, материальное благополучие - все здесь привлекает парня. Однако глава семьи - заведующий горторгом – давно работает на группу жуликов, орудующих в торговой сети. С ними же, незаметно для себя, оказался связанным и Геннадий Куприянов.

    [img]http://picplus.ru/img/1810/07/1377c636.png[/img]
    [img]http://new-team.org/images/sample_video.png[/img]

    Источник: DVD5 R5
    Качество видео: DVDRip
    Формат видео: AVI

    Видео: 688х512 (4:3), 25 fps, XviD ~ 1559 kbps avg, 0.177 bit/pixel
    Аудио: 48 kHz, Dolby Digital AC3 2.0, 192 kbps

    MediaInfo

    Общее
    Полное имя                               : Visokosnyy.god.1961.DVDRip_[New-team]_by_AVP_Studio.avi
    Формат                                   : AVI
    Формат/Информация                        : Audio Video Interleave
    Размер файла                             : 1,09 Гбайт
    Продолжительность                        : 1 ч. 28 м.
    Общий поток                              : 1761 Кбит/сек
    Программа кодирования                    : VirtualDubMod 1.5.10.3 | www.virtualdub-fr.org || (build 2550/release)
    Библиотека кодирования                   : VirtualDubMod build 2550/release

    Видео
    Идентификатор                            : 0
    Формат                                   : MPEG-4 Visual
    Профиль формата                          : Advanced Simple@L5
    Настройки формата                        : BVOP1 / Custom Matrix
    Параметр BVOP формата                    : 1
    Параметр QPel формата                    : Нет
    Параметр GMC формата                     : Без точки перехода
    Параметр матрицы формата                 : Выборочная
    Идентификатор кодека                     : XVID
    Идентификатор кодека/Подсказка           : XviD
    Продолжительность                        : 1 ч. 28 м.
    Битрейт                                  : 1559 Кбит/сек
    Ширина                                   : 688 пикселей
    Высота                                   : 512 пикселей
    Соотношение сторон                       : 4:3
    Частота кадров                           : 25,000 кадров/сек
    Цветовое пространство                    : YUV
    Субдискретизация насыщенности            : 4:2:0
    Битовая глубина                          : 8 бит
    Тип развёртки                            : Прогрессивная
    Метод сжатия                             : С потерями
    Бит/(Пиксели*Кадры)                      : 0.177
    Размер потока                            : 988 Мбайт (89%)
    Библиотека кодирования                   : XviD 73

    Аудио
    Идентификатор                            : 1
    Формат                                   : AC-3
    Формат/Информация                        : Audio Coding 3
    Коммерческое название                    : Dolby Digital
    Идентификатор кодека                     : 2000
    Продолжительность                        : 1 ч. 28 м.
    Вид битрейта                             : Постоянный
    Битрейт                                  : 192 Кбит/сек
    Каналы                                   : 2 канала
    Channel layout                           : L R
    Частота                                  : 48,0 КГц
    Частота кадров                           : 31,250 кадров/сек (1536 SPF)
    Битовая глубина                          : 16 бит
    Метод сжатия                             : С потерями
    Размер потока                            : 122 Мбайт (11%)
    Выравнивание                             : Разделение по промежуткам
    Продолжительность промежутка             : 40  мс. (1,00 видеокадр)
    Время предзагрузки промежутка            : 500  мс


    Еще похожие »

    Как скачать?
    1. Качаем UTorrent версии 2.0 и выше отсюда
    2. После установки, жмем на ссылку Скачать торрент.
    3. Открываем его через utorrent.
    4. Ждем пока подключатся участники.
    5. Качаем.


    Комментарии о Високосный год | DVDRip
    Добавлять комментарии могут только зарегистрированные пользователи

    Зарегистрироваться или Войти


    Ближайшее в кино
    • Примадонна дата выхода 18 октября 2018Примадонна
      Дата выхода: 18 октября 2018
    • 885317|Ученик чудовища|18 октября 2018|200|300Ученик чудовища
      Дата выхода: 18 октября 2018
    • 472369|Хэллоуин|18 октября 2018|200|300Хэллоуин
      Дата выхода: 18 октября 2018
    • 1005852|Дикая жизнь|18 октября 2018|200|300Дикая жизнь
      Дата выхода: 18 октября 2018
    • 696499|Галвестон|18 октября 2018|200|300Галвестон
      Дата выхода: 18 октября 2018
    • 1111886|Лукас|18 октября 2018|200|300Лукас
      Дата выхода: 18 октября 2018
    • 1045555|Вечная жизнь Александра Христофорова|18 октября 2018|200|300Вечная жизнь Александра Христофорова
      Дата выхода: 18 октября 2018
    • 1112943|Шестой пост|18 октября 2018|200|300Шестой пост
      Дата выхода: 18 октября 2018
    • 1044626|Тайна магазина игрушек|18 октября 2018|200|300Тайна магазина игрушек
      Дата выхода: 18 октября 2018
    • 629086|Лягушонок Риббит|18 октября 2018|200|300Лягушонок Риббит
      Дата выхода: 18 октября 2018
    • 991817|Закат|18 октября 2018|200|300Закат
      Дата выхода: 18 октября 2018
    • 1020860|Безупречная жизнь|18 октября 2018|200|300Безупречная жизнь
      Дата выхода: 18 октября 2018
    • 968603|Зимние братья|18 октября 2018|200|300Зимние братья
      Дата выхода: 18 октября 2018
    • 1008554|Слоны могут играть в футбол|18 октября 2018|200|300Слоны могут играть в футбол
      Дата выхода: 18 октября 2018
    • 939290|Прогулка по Риму|18 октября 2018|200|300Прогулка по Риму
      Дата выхода: 18 октября 2018
    Вверх