• Игры для PS4
  • Игры для PS3
  • Игры для XBOX360
  • Игры для PC
  • Игры для PS2
  • Игры для PSP
  • Для телефонов
  • Музыка
  • Книги / Журналы
  • Обои
  • Опрос
    Откуда Вы о нас узнали?
      0
    • От знакомых2,1,false,300,full
    • Из социальных сетей2,2,false,300,full
    • Из поисковых систем2,3,false,300,full
    • Другое2,4,false,300,full
    Статистика
    Всего онлайн -
    Гостей -
    Пользователей -
    Короли трекера
    Благодарности () Закрыть
    Информация о фильме
    Название: Убийца гоблинов
    Оригинальное название: Goblin Slayer
    Страна: Япония [img]http://img12.lostpic.net/2018/05/08/2b4dc5941298e52367fc6240fa2f3c3c.gif[/img]
    Год выхода: 2018
    Жанр: Приключения, фэнтези
    Режиссер: Такахару Одзаки
    Автор оригинала:  Кагю Кумо / 蝸牛くも

    О фильме: Действие происходит в фантазийном мире, похожем на компьютерную игру, в котором живут различные монстры и авантюристы, выполняющие миссии. Гильдия новичков, в которую вступает наша главная героиня в качестве жрицы, решает отправиться на своё первое задание. И для этого они выбрали самое простое, а именно стандартное задание для новичков - убийство гоблинов. Но почему-то, вместо успешного выполнения первой миссии, их ждали непосильные трудности, с которыми они справиться не смогли. Спасти несчастных горемык от зловещих врагов приходит Убийца гоблинов, который не жалеет на их истребление ни своих сил, ни времени. Наша жрица настолько прониклась этим героем, что решила покинуть свою гильдию и помогать Убийце в его длительной миссии. Сражаясь вместе с ним, девушка учится новым заклинаниям и становится всё сильнее. Но почему отважный Убийца нацелен именно на гоблинов, самых слабых и безопасных монстров в этом мире? И почему же гильдии новичков не удалось тогда успешно выполнить базовое задание?

    Студия:[img]http://img11.lostpic.net/2018/10/08/318f98ce8bc028e3f7802abcc3dba738.jpg[/img]

    Продолжительность: ~ 00:24:00
    Перевод: Любительский двухголосый
    Озвучили: JAM, Trina_D
    Сборка контейнера: Eugeo

    Файл
    Формат: mp4
    Качество: HDTVRip 720p
    Видео: H.264; 1280x720; ~ 2000 Kbps, 23.976fps; (8 bit)
    Аудио 1: AAC 48000 Hz, 2.0, 192 kbps Язык Русский
    Аудио 2: AAC 48000 Hz, 2.0, 192 kbps Язык Японский
    Субтитры: (внешние ASS) Язык субтитров русский ; Перевод: Airfu lAleksXAA (SovetRomantica)

    Инфо-файл

    Общее
    Полное имя                               : F:AnimeGoblin_Slayer_[JAM & Trina D]_[720p]Goblin_Slayer_[01]_[JAM & Trina D].ass
    Размер файла                             : 29,2 Кбайт

    Общее
    Полное имя                               : F:AnimeGoblin_Slayer_[JAM & Trina D]_[720p]Goblin_Slayer_[01]_[JAM & Trina D].mp4
    Формат                                   : MPEG-4
    Профиль формата                          : Base Media
    Идентификатор кодека                     : isom
    Размер файла                             : 435 Мбайт
    Продолжительность                        : 24 м.
    Режим общего битрейта                    : Переменный
    Общий поток                              : 2535 Кбит/сек
    Дата кодирования                         : UTC 2018-10-06 20:02:26
    Дата пометки                             : UTC 2018-10-06 20:02:26
    Программа кодирования                    : Yamb 2.1.0.0 [http://yamb.unite-video.com]

    Видео
    Идентификатор                            : 1
    Формат                                   : AVC
    Формат/Информация                        : Advanced Video Codec
    Профиль формата                          : High@L4.1
    Параметр CABAC формата                   : Да
    Параметр ReFrames формата                : 4 кадра
    Идентификатор кодека                     : avc1
    Идентификатор кодека/Информация          : Advanced Video Coding
    Продолжительность                        : 24 м.
    Битрейт                                  : 2146 Кбит/сек
    Максимальный битрейт                     : 8133 Кбит/сек
    Ширина                                   : 1280 пикселей
    Высота                                   : 720 пикселей
    Соотношение сторон                       : 16:9
    Режим частоты кадров                     : Постоянный
    Частота кадров                           : 23,976 кадра/сек
    Цветовое пространство                    : YUV
    Субдискретизация насыщенности            : 4:2:0
    Битовая глубина                          : 8 бит
    Тип развёртки                            : Прогрессивная
    Бит/(Пиксели*Кадры)                      : 0.097
    Размер потока                            : 368 Мбайт (85%)
    Заголовок                                : 264
    Библиотека кодирования                   : x264 core 129 r2245+729M 1a52e03
    Настройки программы                      : cabac=1 / ref=4 / deblock=1:1:-1 / analyse=0x3:0x113 / me=umh / subme=9 / psy=1 / fade_compensate=0.00 / psy_rd=1.00:0.00 / mixed_ref=1 / me_range=24 / chroma_me=1 / trellis=2 / 8x8dct=1 / cqm=0 / deadzone=21,11 / fast_pskip=1 / chroma_qp_offset=-2 / threads=8 / lookahead_threads=1 / sliced_threads=0 / nr=0 / decimate=1 / interlaced=0 / bluray_compat=0 / constrained_intra=0 / fgo=0 / bframes=9 / b_pyramid=2 / b_adapt=2 / b_bias=0 / direct=1 / weightb=1 / open_gop=0 / weightp=2 / keyint=240 / keyint_min=24 / scenecut=40 / intra_refresh=0 / rc=crf / mbtree=0 / crf=18.5 / qcomp=0.72 / qpmin=0 / qpmax=69 / qpstep=4 / ip_ratio=1.40 / pb_ratio=1.30 / aq=1:0.85
    Дата кодирования                         : UTC 2018-10-06 23:24:28
    Дата пометки                             : UTC 2018-10-06 20:02:37
    Цветовой диапазон                        : Limited
    Основные цвета                           : BT.709
    Характеристики трансфера                 : BT.709
    Коэффициенты матрицы                     : BT.709

    Аудио #1
    Идентификатор                            : 2
    Формат                                   : AAC
    Формат/Информация                        : Advanced Audio Codec
    Профиль формата                          : LC
    Идентификатор кодека                     : 40
    Продолжительность                        : 24 м.
    Вид битрейта                             : Переменный
    Битрейт                                  : 192 Кбит/сек
    Максимальный битрейт                     : 198 Кбит/сек
    Каналы                                   : 2 канала
    Расположение каналов                     : Front: L R
    Частота                                  : 48,0 КГц
    Метод сжатия                             : С потерями
    Размер потока                            : 33,0 Мбайт (8%)
    Заголовок                                : JAM & Trina D
    Язык                                     : Russian
    Дата кодирования                         : UTC 2018-10-06 20:02:36
    Дата пометки                             : UTC 2018-10-06 20:02:37

    Аудио #2
    Идентификатор                            : 3
    Формат                                   : AAC
    Формат/Информация                        : Advanced Audio Codec
    Профиль формата                          : LC
    Идентификатор кодека                     : 40
    Продолжительность                        : 24 м.
    Вид битрейта                             : Переменный
    Битрейт                                  : 192 Кбит/сек
    Максимальный битрейт                     : 224 Кбит/сек
    Каналы                                   : 2 канала
    Расположение каналов                     : Front: L R
    Частота                                  : 48,0 КГц
    Метод сжатия                             : С потерями
    Размер потока                            : 32,9 Мбайт (8%)
    Язык                                     : Japanese
    Дата кодирования                         : UTC 2018-10-06 20:02:36
    Дата пометки                             : UTC 2018-10-06 20:02:37
    Свернуть


    Список серий
    01. The Storm Dragon, Verudora

    Свернуть


    Инструкция по скачиванию
     1  Качаем uTorrent версии 2.0 и выше
     2  После установки, жмем выше под постером на ссылку Скачать [MediaGet] или Скачать .torrent
     3  Открываем скачанный файл через соответствующий клиент: MediaGet или uTorrent
     4  Ждем пока подключатся участники
     5  Качаем
    Комментарии о  Убийца гоблинов / Goblin Slayer [Серия 01 из 12] | HDTVRip 720p 
    Ближайшее в кино
    Вверх