• Игры для PS4
  • Игры для PS3
  • Игры для XBOX360
  • Игры для PC
  • Игры для PS2
  • Игры для PSP
  • Для телефонов
  • Музыка
  • Книги/Журналы
  • Обои
  •  
    Опрос
    Удобен ли сайт в использовании?
      0
    • Очень удобен, все понятно1,1,false,300,full
    • Удобен1,2,false,300,full
    • Средне1,3,false,300,full
    • Неудобен, трудно ориентироваться1,4,false,300,full
    • Совсем неудобен1,5,false,300,full
    Статистика
    Загрузка...
    Слэндермэн / Стройный человек, Слендермен / Slender Man | TS-AVC
    Статус  Проверено
    В закладки
    Модератор: Max

    Слэндермэн / Стройный человек, Слендермен / Slender Man | TS-AVC [Фильмы 2018] скачать торрентом/torrent бесплатно

    Год выхода
    Язык
    Закачал
    Аноним | 08 октября в 14ч 13м 00с
    Раздел
    Отзывов
    0
    Раздают: 19 Качают: 2 Скачали: 215 Размер: 1.02 GB
    Инфо о раздаче | Благодарности |
    0/5
    0
    0 5 0
    Поддержи нас — расскажи друзьям!
    Orbitum
    Новый интернет-браузер Быстрее загружает сайты Экономит интернет—трафик Меняет оформление страницы ВК Блокирует всю рекламу на сайтах Загружает торренты как

    µTorrent

    клиент
    Объеденяет все твои чаты из соц. сетей в один Проигрывает твою музыку не заходя во ВКонтакте
    Скачать и многое другое... Подробности на сайте производителя
    Информация о фильме
    Название: Слэндермэн / Стройный человек, Слендермен
    Оригинальное название: Slender Man
    Год выхода: 2018
    Жанр: Ужасы, триллер, детектив
    Режиссер: Сильвен Уайт
    В ролях: Джои Кинг, Джулия Голден Теллес, Жасмин Сабино, Анналиса Бассо, Алекс Фицалан, Тейлор Ричардсон, Хавьер Ботет, Джессика Бланк, Майкл Рейли Бурк, Кевин Чэпмен и другие
    О фильме:
    Слендермен - это худощавая фигура в похоронном костюме, без лица, без красок и без ясных намерений. Он становится кошмаром множества детей и подростков, которые пытаются укрыться от его преследования, пока однажды не исчезают без следа.



    Страна: США, Mythology Entertainment, Madhouse Entertainment
    Продолжительность: 01:26:32
    Перевод: Любительский (двухголосый закадровый) | HiWay Grope

    Файл
    Кодек: MPEG-4 AVC/x.264
    Качество: TS-AVC
    Видео: 720x280, 29.970 fps, ~1 497 kbps, 0.248 bit/pixel
    Звук:
    Аудио rus: AC3, 48 kHz, 2 ch, 192 Kbps
    Субтитры: отсутствуют

    Реклама: присутствует

    Семпл

    MediaInfo

    General
    Unique ID                                : 57038231948715941922229957243527501718 (0x2AE929F498A886B81B9495E8C1441796)
    Complete name                            : D:Slenderman 2018.TS-AVC.HiWayGropeSlenderman 2018.TS-AVC.HiWayGrope.mkv
    Format                                   : Matroska
    Format version                           : Version 4 / Version 2
    File size                                : 1.02 GiB
    Duration                                 : 1 h 26 min
    Overall bit rate                         : 1 691 kb/s
    Encoded date                             : UTC 2018-10-08 06:10:43
    Writing application                      : mkvmerge v27.0.0 ("Metropolis") 64-bit
    Writing library                          : libebml v1.3.6 + libmatroska v1.4.9

    Video
    ID                                       : 1
    Format                                   : AVC
    Format/Info                              : Advanced Video Codec
    Format profile                           : Main@L3.1
    Format settings                          : CABAC / 4 Ref Frames
    Format settings, CABAC                   : Yes
    Format settings, RefFrames               : 4 frames
    Codec ID                                 : V_MPEG4/ISO/AVC
    Duration                                 : 1 h 26 min
    Bit rate                                 : 1 497 kb/s
    Width                                    : 720 pixels
    Height                                   : 280 pixels
    Display aspect ratio                     : 2.571
    Frame rate mode                          : Constant
    Frame rate                               : 29.970 (30000/1001) FPS
    Standard                                 : NTSC
    Color space                              : YUV
    Chroma subsampling                       : 4:2:0
    Bit depth                                : 8 bits
    Scan type                                : Progressive
    Bits/(Pixel*Frame)                       : 0.248
    Stream size                              : 926 MiB (89%)
    Language                                 : English
    Default                                  : Yes
    Forced                                   : No
    Color range                              : Limited
    Color primaries                          : BT.601 NTSC
    Transfer characteristics                 : BT.601
    Matrix coefficients                      : BT.601

    Audio
    ID                                       : 2
    Format                                   : AC-3
    Format/Info                              : Audio Coding 3
    Codec ID                                 : A_AC3
    Duration                                 : 1 h 26 min
    Bit rate mode                            : Constant
    Bit rate                                 : 192 kb/s
    Channel(s)                               : 2 channels
    Channel positions                        : Front: L R
    Sampling rate                            : 48.0 kHz
    Frame rate                               : 31.250 FPS (1536 SPF)
    Bit depth                                : 16 bits
    Compression mode                         : Lossy
    Stream size                              : 119 MiB (11%)
    Service kind                             : Complete Main
    Default                                  : Yes
    Forced                                   : No



    Еще похожие »

    Как скачать?
    1. Качаем UTorrent версии 2.0 и выше отсюда
    2. После установки, жмем на ссылку Скачать торрент.
    3. Открываем его через utorrent.
    4. Ждем пока подключатся участники.
    5. Качаем.


    Комментарии о Слэндермэн / Стройный человек, Слендермен / Slender Man | TS-AVC
    Добавлять комментарии могут только зарегистрированные пользователи

    Зарегистрироваться или Войти


    Ближайшее в кино
    • Примадонна дата выхода 18 октября 2018Примадонна
      Дата выхода: 18 октября 2018
    • 885317|Ученик чудовища|18 октября 2018|200|300Ученик чудовища
      Дата выхода: 18 октября 2018
    • 472369|Хэллоуин|18 октября 2018|200|300Хэллоуин
      Дата выхода: 18 октября 2018
    • 1005852|Дикая жизнь|18 октября 2018|200|300Дикая жизнь
      Дата выхода: 18 октября 2018
    • 696499|Галвестон|18 октября 2018|200|300Галвестон
      Дата выхода: 18 октября 2018
    • 1111886|Лукас|18 октября 2018|200|300Лукас
      Дата выхода: 18 октября 2018
    • 1045555|Вечная жизнь Александра Христофорова|18 октября 2018|200|300Вечная жизнь Александра Христофорова
      Дата выхода: 18 октября 2018
    • 1112943|Шестой пост|18 октября 2018|200|300Шестой пост
      Дата выхода: 18 октября 2018
    • 1044626|Тайна магазина игрушек|18 октября 2018|200|300Тайна магазина игрушек
      Дата выхода: 18 октября 2018
    • 629086|Лягушонок Риббит|18 октября 2018|200|300Лягушонок Риббит
      Дата выхода: 18 октября 2018
    • 991817|Закат|18 октября 2018|200|300Закат
      Дата выхода: 18 октября 2018
    • 1020860|Безупречная жизнь|18 октября 2018|200|300Безупречная жизнь
      Дата выхода: 18 октября 2018
    • 968603|Зимние братья|18 октября 2018|200|300Зимние братья
      Дата выхода: 18 октября 2018
    • 1008554|Слоны могут играть в футбол|18 октября 2018|200|300Слоны могут играть в футбол
      Дата выхода: 18 октября 2018
    • 939290|Прогулка по Риму|18 октября 2018|200|300Прогулка по Риму
      Дата выхода: 18 октября 2018
    Вверх