• Игры для PS4
  • Игры для PS3
  • Игры для XBOX360
  • Игры для PC
  • Игры для PS2
  • Игры для PSP
  • Для телефонов
  • Музыка
  • Книги/Журналы
  • Обои
  •  
    Опрос
    Удобен ли сайт в использовании?
      0
    • Очень удобен, все понятно1,1,false,300,full
    • Удобен1,2,false,300,full
    • Средне1,3,false,300,full
    • Неудобен, трудно ориентироваться1,4,false,300,full
    • Совсем неудобен1,5,false,300,full
    Статистика
    Загрузка...
    Невероятные приключения Факира / The Extraordinary Journey of the Fakir | BDRip 720p
    Статус  Проверено
    В закладки
    Модератор: Max

    Невероятные приключения Факира / The Extraordinary Journey of the Fakir | BDRip 720p [Фильмы 2018] скачать торрентом/torrent бесплатно

    Год выхода
    Язык
    Закачал
    Аноним | 08 октября в 14ч 42м 05с
    Раздел
    Отзывов
    0
    Раздают: 32 Качают: 4 Скачали: 148 Размер: 3.2 GB
    Инфо о раздаче | Благодарности |
    0/5
    0
    0 5 0
    Поддержи нас — расскажи друзьям!
    Orbitum
    Новый интернет-браузер Быстрее загружает сайты Экономит интернет—трафик Меняет оформление страницы ВК Блокирует всю рекламу на сайтах Загружает торренты как

    µTorrent

    клиент
    Объеденяет все твои чаты из соц. сетей в один Проигрывает твою музыку не заходя во ВКонтакте
    Скачать и многое другое... Подробности на сайте производителя
    Информация о фильме
    Название: Невероятные приключения Факира
    Оригинальное название: The Extraordinary Journey of the Fakir
    Год выхода: 2018
    Жанр: Комедия, приключения
    Режиссер: Кен Скотт
    В ролях: Дхануш, Беренис Бежо, Эрин Мориарти, Баркхад Абди, Жерар Жюньо, Бен Миллер, Абель Жафри, Сара-Джинн Лабросс, Кай Грейданус, Амрута Сент

    О фильме:
    Если любовь не стучится в дверь, самое время поискать её на другом конце света. Когда нашел — не потерять. А если потерял — вернуть любой ценой. Пускай для этого придется путешествовать в шкафу, на лодке, на воздушном шаре или даже в чемодане. Мумбаи-Париж-Лондон-Рим — если у чувств нет границ, то и бизнес-класс им не нужен.



    Страна: Франция, США, Бельгия, Сингапур, Индия
    Студия: Brio Films, Scope Pictures, Little Red Car Films
    Продолжительность: 01:35:50
    Перевод: Дублированный | iTunes

    Файл
    Кодек: x.264
    Качество: BDRip 720p
    Видео: MPEG-4 AVC, 1280x536, 3787 Кбит/сек, 24.000 кадр/с
    Аудио #1: Русский ( АС3, 6ch, 384 Кбит/с, 48.0 KHz) Профессиональный (дублированный) iTunes
    Аудио #2: Английский ( AC3, 6ch, 640 Кбит/с, 48.0 KHz)
    Субтитры: нет

    MediaInfo

    x264 [info]: frame I:1761  Avg QP:15.36  size:104345
    x264 [info]: frame P:23522 Avg QP:18.20  size: 38366
    x264 [info]: frame B:112734 Avg QP:19.46  size: 14293

    Format                                   : Matroska
    Format version                           : Version 4
    File size                                : 3,20 Гбайт
    Duration                                 : 1 ч. 35 м.
    Overall bit rate                         : 4777 Кбит/сек
    Encoded date                             : UTC 2018-10-08 09:00:29
    Writing application                      : mkvmerge v25.0.0 ("Prog Noir") 64-bit
    Writing library                          : libebml v1.3.6 + libmatroska v1.4.9

    Видео
    ID                                       : 1
    Format                                   : AVC
    Format/Info                              : Advanced Video Codec
    Format profile                           : High@L4.1
    Format settings                          : CABAC / 12 Ref Frames
    Format settings, CABAC                   : Да
    Format settings, RefFrames               : 12 кадров
    Codec ID                                 : V_MPEG4/ISO/AVC
    Duration                                 : 1 ч. 35 м.
    Bit rate                                 : 3787 Кбит/сек
    Width                                    : 1280 пикселей
    Height                                   : 536 пикселей
    Display aspect ratio                     : 2,40:1
    Frame rate mode                          : Постоянный
    Frame rate                               : 24,000 кадра/сек
    Color space                              : YUV
    Chroma subsampling                       : 4:2:0
    Bit depth                                : 8 бит
    Scan type                                : Прогрессивная
    Bits/(Pixel*Frame)                       : 0.230
    Stream size                              : 2,51 Гбайт (79%)
    Writing library                          : x264 core 152 r2851 ba24899
    Encoding settings                        : cabac=1 / ref=12 / deblock=1:-3:-3 / analyse=0x3:0x133 / me=umh / subme=11 / psy=1 / psy_rd=1.00:0.05 / mixed_ref=1 / me_range=32 / chroma_me=1 / trellis=2 / 8x8dct=1 / cqm=0 / deadzone=21,11 / fast_pskip=0 / chroma_qp_offset=-3 / threads=17 / lookahead_threads=3 / sliced_threads=0 / nr=0 / decimate=0 / interlaced=0 / bluray_compat=0 / constrained_intra=0 / bframes=10 / b_pyramid=2 / b_adapt=1 / b_bias=0 / direct=3 / weightb=1 / open_gop=0 / weightp=2 / keyint=240 / keyint_min=24 / scenecut=40 / intra_refresh=0 / rc_lookahead=40 / rc=2pass / mbtree=0 / bitrate=3787 / ratetol=1.0 / qcomp=0.60 / qpmin=0 / qpmax=69 / qpstep=4 / cplxblur=20.0 / qblur=0.5 / vbv_maxrate=50000 / vbv_bufsize=62500 / nal_hrd=none / filler=0 / ip_ratio=1.40 / pb_ratio=1.30 / aq=3:0.80
    Language                                 : English
    Default                                  : Да
    Forced                                   : Нет

    Аудио #1
    ID                                       : 2
    Format                                   : AC-3
    Format/Info                              : Audio Coding 3
    Commercial name                          : Dolby Digital
    Codec ID                                 : A_AC3
    Duration                                 : 1 ч. 35 м.
    Bit rate mode                            : Постоянный
    Bit rate                                 : 384 Кбит/сек
    Channel(s)                               : 6 каналов
    Channel layout                           : L R C LFE Ls Rs
    Sampling rate                            : 48,0 КГц
    Frame rate                               : 31,250 кадров/сек (1536 SPF)
    Bit depth                                : 16 бит
    Compression mode                         : С потерями
    Stream size                              : 262 Мбайт (8%)
    Title                                    : iTunes
    Language                                 : Russian
    Service kind                             : Complete Main
    Default                                  : Да
    Forced                                   : Нет

    Аудио #2
    ID                                       : 3
    Format                                   : AC-3
    Format/Info                              : Audio Coding 3
    Commercial name                          : Dolby Digital
    Codec ID                                 : A_AC3
    Duration                                 : 1 ч. 35 м.
    Bit rate mode                            : Постоянный
    Bit rate                                 : 640 Кбит/сек
    Channel(s)                               : 6 каналов
    Channel layout                           : L R C LFE Ls Rs
    Sampling rate                            : 48,0 КГц
    Frame rate                               : 31,250 кадров/сек (1536 SPF)
    Bit depth                                : 16 бит
    Compression mode                         : С потерями
    Stream size                              : 439 Мбайт (13%)
    Title                                    : Original
    Language                                 : English
    Service kind                             : Complete Main
    Default                                  : Нет
    Forced                                   : Нет

    Меню
    00:00:00.000                             : en:00:00:00.000
    00:09:18.250                             : en:00:09:18.250
    00:16:21.292                             : en:00:16:21.292
    00:24:12.417                             : en:00:24:12.417
    00:34:11.417                             : en:00:34:11.417
    00:43:00.333                             : en:00:43:00.333
    00:48:51.458                             : en:00:48:51.458
    00:59:26.917                             : en:00:59:26.917
    01:10:36.750                             : en:01:10:36.750
    01:20:20.625                             : en:01:20:20.625
    01:28:08.750                             : en:01:28:08.750


    Еще похожие »

    Как скачать?
    1. Качаем UTorrent версии 2.0 и выше отсюда
    2. После установки, жмем на ссылку Скачать торрент.
    3. Открываем его через utorrent.
    4. Ждем пока подключатся участники.
    5. Качаем.


    Комментарии о Невероятные приключения Факира / The Extraordinary Journey of the Fakir | BDRip 720p
    Добавлять комментарии могут только зарегистрированные пользователи

    Зарегистрироваться или Войти


    Ближайшее в кино
    • Примадонна дата выхода 18 октября 2018Примадонна
      Дата выхода: 18 октября 2018
    • 885317|Ученик чудовища|18 октября 2018|200|300Ученик чудовища
      Дата выхода: 18 октября 2018
    • 472369|Хэллоуин|18 октября 2018|200|300Хэллоуин
      Дата выхода: 18 октября 2018
    • 1005852|Дикая жизнь|18 октября 2018|200|300Дикая жизнь
      Дата выхода: 18 октября 2018
    • 696499|Галвестон|18 октября 2018|200|300Галвестон
      Дата выхода: 18 октября 2018
    • 1111886|Лукас|18 октября 2018|200|300Лукас
      Дата выхода: 18 октября 2018
    • 1045555|Вечная жизнь Александра Христофорова|18 октября 2018|200|300Вечная жизнь Александра Христофорова
      Дата выхода: 18 октября 2018
    • 1112943|Шестой пост|18 октября 2018|200|300Шестой пост
      Дата выхода: 18 октября 2018
    • 1044626|Тайна магазина игрушек|18 октября 2018|200|300Тайна магазина игрушек
      Дата выхода: 18 октября 2018
    • 629086|Лягушонок Риббит|18 октября 2018|200|300Лягушонок Риббит
      Дата выхода: 18 октября 2018
    • 991817|Закат|18 октября 2018|200|300Закат
      Дата выхода: 18 октября 2018
    • 1020860|Безупречная жизнь|18 октября 2018|200|300Безупречная жизнь
      Дата выхода: 18 октября 2018
    • 968603|Зимние братья|18 октября 2018|200|300Зимние братья
      Дата выхода: 18 октября 2018
    • 1008554|Слоны могут играть в футбол|18 октября 2018|200|300Слоны могут играть в футбол
      Дата выхода: 18 октября 2018
    • 939290|Прогулка по Риму|18 октября 2018|200|300Прогулка по Риму
      Дата выхода: 18 октября 2018
    Вверх