• Игры для PS4
  • Игры для PS3
  • Игры для XBOX360
  • Игры для PC
  • Игры для PS2
  • Игры для PSP
  • Для телефонов
  • Музыка
  • Книги / Журналы
  • Обои
  • Опрос
    Удобен ли сайт в использовании?
      0
    • Очень удобен, все понятно1,1,false,300,full
    • Удобен1,2,false,300,full
    • Средне1,3,false,300,full
    • Неудобен, трудно ориентироваться1,4,false,300,full
    • Совсем неудобен1,5,false,300,full
    Статистика
    Всего онлайн -
    Гостей -
    Пользователей -
    Короли трекера
    
    Благодарности () Закрыть
    Быстрее загружает сайты Экономит интернет—трафик Меняет оформление страницы ВК Блокирует всю рекламу на сайтах Загружает торренты как µTorrent клиент Объеденяет все твои чаты из соц. сетей в один Проигрывает твою музыку не заходя во ВКонтакте
    Новый интернет-браузер
    Orbitum
    Скачать
    и многое другое... Подробности на сайте производителя
    Страна: Великобритания
    Студия: The Rank Organisation Film Productions Ltd.
    Жанр:  комедия
    Год выпуска: 1964
    Продолжительность: 01:36:21

    Перевод: Профессиональный (двухголосый закадровый) - Фортуна Фильм
    Субтитры: английские
    Оригинальная аудиодорожка: английский

    Режиссер: Ральф Томас / Ralph Thomas

    В ролях: Дирк Богард /Dirk Bogarde/, Сильва Кошина /Sylva Koscina/, Роберт Морли /Robert Morley/, Лео МакКерн /Leo McKern/, Роджер Делгадо /Roger Delgado/, Дерек Фоулдс /Derek Fowlds/, Аманда Гринлинг /Amanda Grinling/, Ноэль Харрисон /Noel Harrison/, Фило Хаузер /Philo Hauser/, Джон Джанкин /John Junkin/

    Описание: Во времена холодной войны британская разведслужба нанимает безработного писателя для выполнения задачи в Праге. По прибытии он увлекается своей очаровательной сопровождающей-водителем. Которая, естественно, работает в спецслужбе…



    Качество видео: BDRip-AVC [Исходник: BD-Remux от HDClub (Спасибо Diablo)]
    Формат видео: MKV

    Видео: AVC (H.264), 1136x640 (16:9), 24.000 fps, 3588 kbps avg, 0.206 bit/pixel
    Аудио: Russian: AC3, 48 kHz, 16 bits, 192 kbps, 2.0 ch (DVO, Фортуна Фильм)
    Аудио 2: English: AC3, 48 kHz, 16 bits, 448 kbps, 6 ch
    Формат субтитров: softsub (SRT)
    Навигация по главам: есть

    За русскую дорожку с VHS спасибо клубу Феникс.
    MediaInfo

    Общее
    Уникальный идентификатор : 183595133272964942988659313075543073416 (0x8A1F22F07235E4EEB7FDBC1CFA33E288)
    Полное имя : E:VideoHot.Enough.for.June.1964.BDRip-AVC.by.kvvk_2009.mkv
    Формат : Matroska
    Версия формата : Version 2
    Размер файла : 2,85 Гбайт
    Продолжительность : 1 ч. 36 м.
    Общий поток : 4230 Кбит/сек
    Дата кодирования : UTC 2012-10-06 01:32:55
    Программа кодирования : mkvmerge v2.9.8 ("C"est le bon") built on Aug 13 2009 12:49:06
    Библиотека кодирования : libebml v0.7.7 + libmatroska v0.8.1

    Видео
    Идентификатор : 1
    Формат : AVC
    Формат/Информация : Advanced Video Codec
    Профиль формата : High@L4.1
    Параметр CABAC формата : Да
    Параметр ReFrames формата : 8 кадров
    Идентификатор кодека : V_MPEG4/ISO/AVC
    Продолжительность : 1 ч. 36 м.
    Битрейт : 3588 Кбит/сек
    Ширина : 1136 пикселей
    Высота : 640 пикселей
    Соотношение сторон : 16:9
    Частота кадров : 24,000 кадра/сек
    Цветовое пространство : YUV
    Субдискретизация насыщенности : 4:2:0
    Битовая глубина : 8 бит
    Тип развёртки : Прогрессивная
    Бит/(Пиксели*Кадры) : 0.206
    Размер потока : 2,36 Гбайт (83%)
    Библиотека кодирования : x264 core 125 r2200 999b753
    Настройки программы : cabac=1 / ref=8 / deblock=1:-2:-1 / analyse=0x3:0x113 / me=umh / subme=10 / psy=1 / psy_rd=1.00:0.00 / mixed_ref=1 / me_range=32 / chroma_me=1 / trellis=2 / 8x8dct=1 / cqm=0 / deadzone=21,11 / fast_pskip=0 / chroma_qp_offset=-2 / threads=3 / lookahead_threads=1 / sliced_threads=0 / nr=0 / decimate=0 / interlaced=0 / bluray_compat=0 / constrained_intra=0 / bframes=8 / b_pyramid=2 / b_adapt=2 / b_bias=0 / direct=3 / weightb=1 / open_gop=0 / weightp=2 / keyint=230 / keyint_min=23 / scenecut=40 / intra_refresh=0 / rc=2pass / mbtree=0 / bitrate=3588 / ratetol=1.0 / qcomp=0.60 / qpmin=0 / qpmax=51 / qpstep=4 / cplxblur=20.0 / qblur=0.5 / ip_ratio=1.40 / pb_ratio=1.30 / aq=1:0.90
    Язык : English
    Default : Нет
    Forced : Нет

    Аудио #1
    Идентификатор : 2
    Формат : AC-3
    Формат/Информация : Audio Coding 3
    Расширение режима : CM (complete main)
    Идентификатор кодека : A_AC3
    Продолжительность : 1 ч. 36 м.
    Вид битрейта : Постоянный
    Битрейт : 192 Кбит/сек
    Каналы : 2 канала
    Расположение каналов : Front: L R
    Частота : 48,0 КГц
    Битовая глубина : 16 бит
    Метод сжатия : С потерями
    Размер потока : 132 Мбайт (5%)
    Заголовок : AC3 2ch @ 192 kbps |DVO, Фортуна Фильм|
    Язык : Russian
    Default : Да
    Forced : Нет

    Аудио #2
    Идентификатор : 3
    Формат : AC-3
    Формат/Информация : Audio Coding 3
    Расширение режима : CM (complete main)
    Идентификатор кодека : A_AC3
    Продолжительность : 1 ч. 36 м.
    Вид битрейта : Постоянный
    Битрейт : 448 Кбит/сек
    Каналы : 6 каналов
    Расположение каналов : Front: L C R, Side: L R, LFE
    Частота : 48,0 КГц
    Битовая глубина : 16 бит
    Метод сжатия : С потерями
    Размер потока : 309 Мбайт (11%)
    Заголовок : AC3 6ch @ 448 kbps
    Язык : English
    Default : Нет
    Forced : Нет

    Текст
    Идентификатор : 4
    Формат : UTF-8
    Идентификатор кодека : S_TEXT/UTF8
    Идентификатор кодека/Информация : UTF-8 Plain Text
    Язык : English
    Default : Нет
    Forced : Нет

    Меню
    00:00:00.000 : :00:00:00.000
    00:04:54.916 : :00:04:54.916
    00:10:17.000 : :00:10:17.000
    00:19:10.666 : :00:19:10.666
    00:29:36.125 : :00:29:36.125
    00:37:34.416 : :00:37:34.416
    00:46:12.125 : :00:46:12.125
    00:53:57.833 : :00:53:57.833
    01:02:37.000 : :01:02:37.000
    01:11:49.916 : :01:11:49.916
    01:16:53.250 : :01:16:53.250
    01:27:17.000 : :01:27:17.000
    Свернуть


    Скриншот c названием фильма

    [screen]http://i26.fastpic.ru/big/2012/1006/89/549ae552b2f09d9cf535ed1da423e389.png[/screen]
    Свернуть


    Скриншоты

    [screen]http://i26.fastpic.ru/big/2012/1006/1c/505710a561a1732bd6a862b88fb6071c.png[/screen][screen]http://i26.fastpic.ru/big/2012/1006/72/54f061e39c12d49288b1f262cd80db72.png[/screen][screen]http://i26.fastpic.ru/big/2012/1006/b7/04a65a56c9367691c1974f6c556ee5b7.png[/screen][screen]http://i26.fastpic.ru/big/2012/1006/82/3844dd60012dea0f8d21fe6d7f137c82.png[/screen]
    Свернуть
    Инструкция по скачиванию
     1  Качаем uTorrent версии 2.0 и выше
     2  После установки, жмем выше под постером на ссылку Скачать [MediaGet] или Скачать .torrent
     3  Открываем скачанный файл через соответствующий клиент: MediaGet или uTorrent
     4  Ждем пока подключатся участники
     5  Качаем
    Комментарии о  Жарковато для июня / Agent 8 3/4 / Hot Enough for JuneHot | BDRip-AVC 
    Ближайшее в кино
    Вверх