• Игры для PS4
  • Игры для PS3
  • Игры для XBOX360
  • Игры для PC
  • Игры для PS2
  • Игры для PSP
  • Для телефонов
  • Музыка
  • Книги / Журналы
  • Обои
  • Опрос
    Откуда Вы о нас узнали?
      0
    • От знакомых2,1,false,300,full
    • Из социальных сетей2,2,false,300,full
    • Из поисковых систем2,3,false,300,full
    • Другое2,4,false,300,full
    Статистика
    Всего онлайн -
    Гостей -
    Пользователей -
    Короли трекера
    Благодарности () Закрыть
    Информация о фильме
    Название: Нас мало
    Оригинальное название: Few of Us
    Год выхода: 1996
    Жанр:  драма
    Режиссер: Шарунас Бартас
    В ролях: Екатерина Голубева, Пётр Киштеев, Сергей Тулаев, Юлия Иноземцева

    Описание:
    Кто эта девушка, которая так пристально смотрит в окно вертолета на дикий, бескрайний пейзаж Саян? Что она ищет на этой земле, нетронутой цивилизацией, на земле, где обитают тофолары — люди, о которых забыл даже Бог?



    Страна: Португалия, Франция, Германия, Литва
    Продолжительность: 01:33:35
    Перевод: Не требуется

    Файл
    Формат видео: MKV
    Качество видео: DVDRip-AVC
    Видео: 720x540, 25 fps, ~2401 kbps, 0.247 bit/pixel
    Аудио: AC3, 2/0 (L,R) ch, ~224 kbps

    M/I
    x264 info: frame I:611   Avg QP:16.63  size: 50660
    x264 info: frame P:20497 Avg QP:17.82  size: 24283
    x264 info: frame B:119267 Avg QP:19.59  size:  9994
    x264 info: consecutive B-frames:  0.7%  0.9%  1.1%  3.5%  8.5% 24.7% 20.7%  8.0%  3.1%  8.2%  0.8% 19.7%  0.2%

    General
    Unique ID                   : 264740889045510532626560374991635584548 (0xC72B3D961A72895ADCFAEC93BA7B9624)
    Complete name               : F:КиношкаНас мало._(1996)_DVDRip-AVC_[-=DoMiNo=-].mkv
    Format                      : Matroska
    Format version              : Version 4
    File size                   : 1.77 GiB
    Duration                    : 1 h 33 min
    Overall bit rate            : 2 711 kb/s
    Movie name                  : Нас мало
    Deion                 : Кто эта девушка, которая так пристально смотрит в окно вертолета на дикий, бескрайний пейзаж Саян? Что она ищет на этой земле, нетронутой цивилизацией, на земле, где обитают тофолары — люди, о которых забыл даже Бог?
    Attachments                 : poster.jpg
    ACTORS                      : Yekaterina Golubeva, Piotr Kishteev, Sergei Tulayev, Yulia Inozemtseva
    COMPOSER                    : Victor Copytsko
    COUNTRY                     : France, Germany, Lithuania, Portugal
    DATE                        : 1996-09-18
    DIRECTOR                    : Šarūnas Bartas
    ENCODING_INFO               : DVD > MKV Пользовательский / MPEG2 > X264 CRF 19.0
    GENRE                       :  драма
    MEDIA_TYPE                  : 9
    ORIGINAL_TITLE              : Mūsų nedaug
    PRODUCER                    : Paulo Branco
    PUBLISHER                   : Westdeutscher Rundfunk (WDR), Madragoa Filmes, Gémini Films, Studio Kinema
    RATING                      : 7.04

    Video
    ID                          : 1
    Format                      : AVC
    Format/Info                 : Advanced Video Codec
    Format profile              : High@L4.1
    Format settings             : CABAC / 12 Ref Frames
    Format settings, CABAC      : Yes
    Format settings, ReFrames   : 12 frames
    Codec ID                    : V_MPEG4/ISO/AVC
    Duration                    : 1 h 33 min
    Bit rate                    : 2 401 kb/s
    Width                       : 720 pixels
    Height                      : 540 pixels
    Display aspect ratio        : 4:3
    Frame rate mode             : Constant
    Frame rate                  : 25.000 FPS
    Color space                 : YUV
    Chroma subsampling          : 4:2:0
    Bit depth                   : 8 bits
    Scan type                   : Progressive
    Bits/(Pixel*Frame)          : 0.247
    Stream size                 : 1.57 GiB (89%)
    Title                       : RIP_BY_-=DoMiNo=-
    Writing library             : x264 core 155 r2901M 7d0ff22
    Encoding settings           : cabac=1 / ref=12 / deblock=1:-3:-3 / analyse=0x3:0x133 / me=umh / subme=11 / psy=1 / psy_rd=1.03:0.10 / mixed_ref=1 / me_range=32 / chroma_me=1 / trellis=2 / 8x8dct=1 / cqm=0 / deadzone=21,11 / fast_pskip=1 / chroma_qp_offset=-3 / threads=6 / lookahead_threads=1 / sliced_threads=0 / nr=0 / decimate=1 / interlaced=0 / bluray_compat=0 / constrained_intra=0 / bframes=12 / b_pyramid=2 / b_adapt=2 / b_bias=0 / direct=1 / weightb=1 / open_gop=0 / weightp=2 / keyint=250 / keyint_min=25 / scenecut=40 / intra_refresh=0 / rc=crf / mbtree=0 / crf=19.0 / qcomp=0.70 / qpmin=0 / qpmax=69 / qpstep=4 / ip_ratio=1.40 / pb_ratio=1.30 / aq=1:1.00
    Default                     : Yes
    Forced                      : No
    Color range                 : Limited

    Audio
    ID                          : 2
    Format                      : AC-3
    Format/Info                 : Audio Coding 3
    Commercial name             : Dolby Digital
    Codec ID                    : A_AC3
    Duration                    : 1 h 33 min
    Bit rate mode               : Constant
    Bit rate                    : 256 kb/s
    Channel(s)                  : 2 channels
    Channel layout              : L R
    Sampling rate               : 48.0 kHz
    Frame rate                  : 31.250 FPS (1536 SPF)
    Bit depth                   : 16 bits
    Compression mode            : Lossy
    Stream size                 : 171 MiB (9%)
    Title                       : RUS_Не требуется
    Language                    : Russian
    Service kind                : Complete Main
    Default                     : Yes
    Forced                      : No

    Menu
    00:00:00.000                : :Глава 1
    00:09:18.640                : :Глава 2
    00:24:58.000                : :Глава 3
    00:36:05.200                : :Глава 4
    00:46:34.000                : :Глава 5
    01:00:02.800                : :Глава 6
    01:11:10.000                : :Глава 7
    01:21:44.080                : :Глава 8Свернуть


    Похожие раздачи Искать похожие
    Инструкция по скачиванию
     1  Качаем uTorrent версии 2.0 и выше
     2  После установки, жмем выше под постером на ссылку Скачать [MediaGet] или Скачать .torrent
     3  Открываем скачанный файл через соответствующий клиент: MediaGet или uTorrent
     4  Ждем пока подключатся участники
     5  Качаем
    Комментарии о  Нас мало / Few of Us | DVDRip-AVC 
    Ближайшее в кино
    Вверх