• Игры для PS4
  • Игры для PS3
  • Игры для XBOX360
  • Игры для PC
  • Игры для PS2
  • Игры для PSP
  • Для телефонов
  • Музыка
  • Книги / Журналы
  • Обои
  • Опрос
    Удобен ли сайт в использовании?
      0
    • Очень удобен, все понятно1,1,false,300,full
    • Удобен1,2,false,300,full
    • Средне1,3,false,300,full
    • Неудобен, трудно ориентироваться1,4,false,300,full
    • Совсем неудобен1,5,false,300,full
    Статистика
    Всего онлайн -
    Гостей -
    Пользователей -
    Короли трекера
    Благодарности () Закрыть
    Год выпуска: 2018
    Страна: США
    Студия: The Lonely Island
    Жанр:  комедия
    Продолжительность: ~20 минут (серия)
    Перевод: Профессиональный (многоголосый закадровый) FOX Life

    Режиссёр: Тамра Дэвис / Tamra Davis
    В ролях: Эстер Повицки, Бенжи Афлало, Эдгар Блэкмон, Крис Д’Елия, Пьюнем Пэйтел, Джинджер Гонзага, Никки Глейсер, Хейли Норман, Алисия Ханна, Кейт Берлант и другие.

    Описание: Эстер и Бенжи — двое странных неудачников из разных слоёв общества, которые стремятся найти своё место в тщеславном мире Лос-Анджелеса, где все одержимы социальным статусом. Однако попытки героев приводят к краху, и в результате они находят утешение лишь в своих платонических отношениях.



    Спасибо Bаdmotherfucker за запись звука, Mary_Miller за постер и v.serij2013 (т.е., мне) за сведение.

    Качество: WEB-DL 1080p
    Формат: MKV
    Видео кодек: AVC
    Аудио кодек: AC3
    Видео: MPEG-4 AVC, 1920x1080, 25.000 fps, ~8044 kbps
    Аудио: русская |FOX Life|: AC3, 48 kHz, 2 ch, 192 kbps
    английская |Оригинал|: E-AC3, 48 kHz, 6 ch, 640 kbps
    Субтитры: английские
    Реклама: нет

    Список серий
    01. Pilot
    02. Road Trip
    03. Fertility
    04. Pop-Up
    05. Dean Girls
    06. Dinner Party
    07. The Big One
    08. Sleepover
    09. Music Video
    10. Property ManagementСвернуть


    Media Info
    General
    Unique ID                      : 47269504427218394411466424224321716084 (0x238FC680D43090A899C781E4CF213F74)
    Complete name                  : E:VideoHDAlone.Together.S01.1080p.AMZN.WEB-DL.Rus.Eng.TeamHDAlone.Together.S01E01.Pilot.1080p.AMZN.WEB-DL.Rus.Eng.TeamHD.mkv
    Format                         : Matroska
    Format version                 : Version 4 / Version 2
    File size                      : 1.40 GiB
    Duration                       : 22mn 4s
    Overall bit rate mode          : Variable
    Overall bit rate               : 9 056 Kbps
    Encoded date                   : UTC 2018-09-13 03:24:14
    Writing application            : mkvmerge v20.0.0 ("I Am The Sun") 32-bit
    Writing library                : libebml v1.3.5 + libmatroska v1.4.8
    DURATION                       : 00:22:03.437000000
    NUMBER_OF_FRAMES               : 672
    NUMBER_OF_BYTES                : 22510
    _STATISTICS_WRITING_APP        : mkvmerge v20.0.0 ("I Am The Sun") 32-bit
    _STATISTICS_WRITING_DATE_UTC   : 2018-09-13 03:24:14
    _STATISTICS_TAGS               : BPS DURATION NUMBER_OF_FRAMES NUMBER_OF_BYTES

    Video
    ID                             : 1
    Format                         : AVC
    Format/Info                    : Advanced Video Codec
    Format profile                 : High@L4.0
    Format settings, CABAC         : Yes
    Format settings, ReFrames      : 4 frames
    Codec ID                       : V_MPEG4/ISO/AVC
    Duration                       : 22mn 4s
    Bit rate mode                  : Variable
    Bit rate                       : 8 044 Kbps
    Maximum bit rate               : 15.0 Mbps
    Width                          : 1 920 pixels
    Height                         : 1 080 pixels
    Display aspect ratio           : 16:9
    Frame rate mode                : Constant
    Frame rate                     : 25.000 fps
    Color space                    : YUV
    Chroma subsampling             : 4:2:0
    Bit depth                      : 8 bits
    Scan type                      : Progressive
    Bits/(Pixel*Frame)             : 0.155
    Stream size                    : 1.24 GiB (89%)
    Language                       : English
    Default                        : Yes
    Forced                         : No
    Color primaries                : BT.709
    Transfer characteristics       : BT.709
    Matrix coefficients            : BT.709
    Color range                    : Limited

    Audio #1
    ID                             : 2
    Format                         : AC-3
    Format/Info                    : Audio Coding 3
    Mode extension                 : CM (complete main)
    Format settings, Endianness    : Big
    Codec ID                       : A_AC3
    Duration                       : 22mn 4s
    Bit rate mode                  : Constant
    Bit rate                       : 192 Kbps
    Channel(s)                     : 2 channels
    Channel positions              : Front: L R
    Sampling rate                  : 48.0 KHz
    Bit depth                      : 16 bits
    Compression mode               : Lossy
    Stream size                    : 30.3 MiB (2%)
    Title                          : MVO (FOX Life)
    Language                       : Russian
    Default                        : Yes
    Forced                         : No

    Audio #2
    ID                             : 3
    Format                         : E-AC-3
    Format/Info                    : Audio Coding 3
    Format settings, Endianness    : Big
    Codec ID                       : A_EAC3
    Duration                       : 22mn 4s
    Bit rate mode                  : Constant
    Bit rate                       : 640 Kbps
    Channel(s)                     : 6 channels
    Channel positions              : Front: L C R, Side: L R, LFE
    Sampling rate                  : 48.0 KHz
    Compression mode               : Lossy
    Stream size                    : 101 MiB (7%)
    Title                          : Original
    Language                       : English
    Default                        : No
    Forced                         : No

    Text #1
    ID                             : 4
    Format                         : UTF-8
    Codec ID                       : S_TEXT/UTF8
    Codec ID/Info                  : UTF-8 Plain Text
    Title                          : Full
    Language                       : English
    Default                        : No
    Forced                         : No

    Text #2
    ID                             : 5
    Format                         : UTF-8
    Codec ID                       : S_TEXT/UTF8
    Codec ID/Info                  : UTF-8 Plain Text
    Title                          : Full (SDH)
    Language                       : English
    Default                        : No
    Forced                         : NoСвернуть


    Инструкция по скачиванию
     1  Качаем uTorrent версии 2.0 и выше
     2  После установки, жмем выше под постером на ссылку Скачать [MediaGet] или Скачать .torrent
     3  Открываем скачанный файл через соответствующий клиент: MediaGet или uTorrent
     4  Ждем пока подключатся участники
     5  Качаем
    Комментарии о  В одиночестве вместе / Alone Together [Сезон 01] | WEB-DL 1080p 
    Ближайшее в кино
    Вверх