• Игры для PS4
  • Игры для PS3
  • Игры для XBOX360
  • Игры для PC
  • Игры для PS2
  • Игры для PSP
  • Для телефонов
  • Музыка
  • Книги / Журналы
  • Обои
  • Опрос
    Откуда Вы о нас узнали?
      0
    • От знакомых2,1,false,300,full
    • Из социальных сетей2,2,false,300,full
    • Из поисковых систем2,3,false,300,full
    • Другое2,4,false,300,full
    Статистика
    Всего онлайн -
    Гостей -
    Пользователей -
    Короли трекера
    Благодарности () Закрыть
    Год выпуска: 2013
    Страна: США, Венгрия, Ирландия, Канада
    Студия: Showtime Networks
    Жанр:  драма, мелодрама, криминал, история
    Продолжительность: ~00:55:00 минут (серия)

    Перевод: Профессиональный (многоголосый закадровый) студия "DabLab" по заказу Amedia |Александр Носков, Василиса Воронина, Илья Исаев, Михаил Бескаравайный, Наталья Колодяжная, Евгений Вальц, Михаил Георгиу|

    Режиссёр: Нил Джордан / Neil Jordan
    В ролях: Джереми Айронс, Франсуа Арно, Холлидей Грейнджер, Питер Салливан, Шон Харрис, Джоэнн Уэлли, Лотта Вербек, Колм Фиор, Вернон Добчефф, Дэвид Оукс и другие.

    Описание: В конце XV века в руках Папы Римского сосредоточилась неограниченная власть: он мог короновать и свергать королей, изменять судьбу империй. Некогда доброе имя церкви стало теперь ассоциироваться только с коррупцией и безнравственностью. В 1492 году, после смерти папы Иннокентия VIII, престол Святого Петра занял Александр VI (в миру Родриго Борджиа), который вписал в историю имя клана Борджиа отнюдь не благими деяниями…



    Спасибо Bаdmotherfucker за запись звука, Mary_Miller за постер и v.serij2013 (т.е., мне) за сведение.

    Качество: BDRip 720p
    Формат: MKV
    Видео кодек: AVC
    Аудио кодек: AC3
    Видео: MPEG-4 AVC, 1280x720, 23.976 fps, ~5880 kbps
    Аудио: русская |Amedia|: AC3, 48 kHz, 2 ch, 192 kbps
    английская |Оригинал|: AC3, 48 kHz, 6 ch, 640 kbps
    Субтитры: русские, английские
    Реклама: нет

    Список серий
    01. The Face of Death
    02. The Purge
    03. Siblings
    04. The Banquet Of Chestnuts
    05. The Wolf and the Lamb
    06. Relics
    07. Lucrezia"s Gambit
    08. Tears of Blood
    09. The Gunpowder Plot
    10. The PrinceСвернуть


    Media Info
    General
    Unique ID                      : 236372752629179898273180732989114182444 (0xB1D3BC79BCFA4FA453A6AA90393C6B2C)
    Complete name                  : E:VideoHDThe.Borgias.S03.720p.BDRip.Rus.Eng.TeamHD-CtrlHDThe.Borgias.S03E01.The.Face.of.Death.720p.BDRip.Rus.Eng.TeamHD-CtrlHD.mkv
    Format                         : Matroska
    Format version                 : Version 4 / Version 2
    File size                      : 2.42 GiB
    Duration                       : 51mn 39s
    Overall bit rate               : 6 714 Kbps
    Encoded date                   : UTC 2018-09-14 00:56:29
    Writing application            : mkvmerge v20.0.0 ("I Am The Sun") 32-bit
    Writing library                : libebml v1.3.5 + libmatroska v1.4.8
    DURATION                       : 00:50:03.362000000
    NUMBER_OF_FRAMES               : 623
    NUMBER_OF_BYTES                : 27572
    _STATISTICS_WRITING_APP        : mkvmerge v20.0.0 ("I Am The Sun") 32-bit
    _STATISTICS_WRITING_DATE_UTC   : 2018-09-14 00:56:29
    _STATISTICS_TAGS               : BPS DURATION NUMBER_OF_FRAMES NUMBER_OF_BYTES

    Video
    ID                             : 1
    Format                         : AVC
    Format/Info                    : Advanced Video Codec
    Format profile                 : High@L4.1
    Format settings, CABAC         : Yes
    Format settings, ReFrames      : 9 frames
    Codec ID                       : V_MPEG4/ISO/AVC
    Duration                       : 51mn 39s
    Bit rate                       : 5 880 Kbps
    Width                          : 1 280 pixels
    Height                         : 720 pixels
    Display aspect ratio           : 16:9
    Frame rate mode                : Constant
    Frame rate                     : 23.976 fps
    Color space                    : YUV
    Chroma subsampling             : 4:2:0
    Bit depth                      : 8 bits
    Scan type                      : Progressive
    Bits/(Pixel*Frame)             : 0.266
    Stream size                    : 2.07 GiB (86%)
    Writing library                : x264 core 135 r2345kMod f0c1c53
    Encoding settings              : cabac=1 / ref=9 / deblock=1:-3:-3 / analyse=0x3:0x113 / me=umh / subme=10 / psy=1 / fade_compensate=0.00 / psy_rd=1.10:0.00 / mixed_ref=1 / me_range=32 / chroma_me=1 / trellis=2 / 8x8dct=1 / cqm=0 / deadzone=21,11 / fast_pskip=0 / chroma_qp_offset=-2 / threads=6 / lookahead_threads=1 / sliced_threads=0 / nr=0 / decimate=0 / interlaced=0 / bluray_compat=0 / constrained_intra=0 / bframes=7 / b_pyramid=2 / b_adapt=2 / b_bias=0 / direct=3 / weightb=1 / open_gop=0 / weightp=2 / keyint=250 / keyint_min=23 / scenecut=40 / intra_refresh=0 / rc=2pass / mbtree=0 / bitrate=5880 / ratetol=1.0 / qcomp=0.80 / qpmin=0 / qpmax=69 / qpstep=4 / cplxblur=20.0 / qblur=0.5 / ip_ratio=1.20 / pb_ratio=1.10 / aq=1:0.80
    Language                       : English
    Default                        : Yes
    Forced                         : No
    DURATION                       : 00:51:39.013000000
    NUMBER_OF_FRAMES               : 74302
    NUMBER_OF_BYTES                : 2277213443
    _STATISTICS_WRITING_APP        : mkvmerge v20.0.0 ("I Am The Sun") 32-bit
    _STATISTICS_WRITING_DATE_UTC   : 2018-09-14 00:56:29
    _STATISTICS_TAGS               : BPS DURATION NUMBER_OF_FRAMES NUMBER_OF_BYTES

    Audio #1
    ID                             : 2
    Format                         : AC-3
    Format/Info                    : Audio Coding 3
    Mode extension                 : CM (complete main)
    Format settings, Endianness    : Big
    Codec ID                       : A_AC3
    Duration                       : 51mn 39s
    Bit rate mode                  : Constant
    Bit rate                       : 192 Kbps
    Channel(s)                     : 2 channels
    Channel positions              : Front: L R
    Sampling rate                  : 48.0 KHz
    Bit depth                      : 16 bits
    Compression mode               : Lossy
    Stream size                    : 70.9 MiB (3%)
    Title                          : MVO (Amedia)
    Language                       : Russian
    Default                        : Yes
    Forced                         : No

    Audio #2
    ID                             : 3
    Format                         : AC-3
    Format/Info                    : Audio Coding 3
    Mode extension                 : CM (complete main)
    Format settings, Endianness    : Big
    Codec ID                       : A_AC3
    Duration                       : 51mn 39s
    Bit rate mode                  : Constant
    Bit rate                       : 640 Kbps
    Channel(s)                     : 6 channels
    Channel positions              : Front: L C R, Side: L R, LFE
    Sampling rate                  : 48.0 KHz
    Bit depth                      : 16 bits
    Compression mode               : Lossy
    Stream size                    : 236 MiB (10%)
    Title                          : Original
    Language                       : English
    Default                        : No
    Forced                         : No

    Text #1
    ID                             : 4
    Format                         : UTF-8
    Codec ID                       : S_TEXT/UTF8
    Codec ID/Info                  : UTF-8 Plain Text
    Title                          : Full (Amedia)
    Language                       : Russian
    Default                        : No
    Forced                         : No

    Text #2
    ID                             : 5
    Format                         : UTF-8
    Codec ID                       : S_TEXT/UTF8
    Codec ID/Info                  : UTF-8 Plain Text
    Title                          : Full
    Language                       : English
    Default                        : No
    Forced                         : No

    Menu
    00:00:00.000                   : en:Chapter 1
    00:02:59.096                   : en:Chapter 2
    00:04:29.186                   : en:Chapter 3
    00:10:26.584                   : en:Chapter 4
    00:20:12.920                   : en:Chapter 5
    00:30:08.724                   : en:Chapter 6
    00:41:09.133                   : en:Chapter 7
    00:50:37.326                   : en:Chapter 8Свернуть


    Похожие раздачи Искать похожие
    Инструкция по скачиванию
     1  Качаем uTorrent версии 2.0 и выше
     2  После установки, жмем выше под постером на ссылку Скачать [MediaGet] или Скачать .torrent
     3  Открываем скачанный файл через соответствующий клиент: MediaGet или uTorrent
     4  Ждем пока подключатся участники
     5  Качаем
    Комментарии о  Борджиа / The Borgias [Сезон 03] | BDRip 720p 
    Ближайшее в кино
    Вверх